<?xml version="1.0" standalone="no"?>
<!DOCTYPE svg PUBLIC "-//W3C//DTD SVG 1.1//EN" "http://www.w3.org/Graphics/SVG/1.1/DTD/svg11.dtd" >
<svg xmlns="http://www.w3.org/2000/svg">
<metadata>
<json>
<![CDATA[
{
	"fontFamily": "Linearicons-Free",
	"fontURL": "https://linearicons.com",
	"designerURL": "https://perxis.com",
	"license": "https://linearicons.com/free/license",
	"licenseURL": "https://linearicons.com/free/license",
	"description": "Designed by Perxis (https://perxis.com).\nFont generated by IcoMoon.",
	"copyright": "Copyright © 2015 Perxis.com. All Rights Reserved.",
	"version": "Version 1.0",
	"majorVersion": 0,
	"fontId": "Linearicons-Free",
	"psName": "Linearicons-Free",
	"subFamily": "Regular",
	"fullName": "Linearicons-Free"
}
]]>
</json>
</metadata>
<defs>
<font id="Linearicons-Free" horiz-adv-x="1024">
<font-face units-per-em="1024" ascent="972.950146627566" descent="-51.049853372434015" />
<missing-glyph horiz-adv-x="1024" />
<glyph unicode="&#x20;" horiz-adv-x="409.39980449657867" d="" />
<glyph unicode="&#xe800;" glyph-name="home" data-tags="home, building, house" d="M1019.372 324.746l-452.934 500.611c-14.079 15.563-33.056 24.134-53.437 24.134-0.002 0 0 0 0 0-20.379 0-39.358-8.571-53.438-24.134l-452.934-500.611c-9.503-10.505-8.691-26.726 1.812-36.228 4.909-4.44 11.065-6.628 17.202-6.628 6.996 0 13.966 2.844 19.030 8.442l109.23 120.727v-411.32c0-42.429 34.521-76.95 76.95-76.95h564.302c42.429 0 76.95 34.521 76.95 76.95v411.32l109.232-120.729c9.503-10.503 25.724-11.318 36.228-1.812 10.503 9.503 11.315 25.725 1.81 36.228zM615.602-25.913h-205.2v230.85c0 14.143 11.507 25.65 25.65 25.65h153.9c14.143 0 25.65-11.507 25.65-25.65v-230.85zM820.803-0.263c0-14.143-11.507-25.65-25.65-25.65h-128.25v230.85c0 42.431-34.519 76.95-76.95 76.95h-153.9c-42.429 0-76.95-34.519-76.95-76.95v-230.85h-128.25c-14.143 0-25.65 11.507-25.65 25.65v468.020l292.403 323.183c4.23 4.677 9.698 7.251 15.398 7.251s11.168-2.576 15.396-7.249l292.405-323.183v-468.021z" />
<glyph unicode="&#xe801;" glyph-name="apartment" data-tags="apartment, building, city, business, work, office" d="M718.202 640.988h51.3v-51.3h-51.3v51.3zM718.202 538.388h51.3v-51.3h-51.3v51.3zM718.202 435.788h51.3v-51.3h-51.3v51.3zM718.202 333.188h51.3v-51.3h-51.3v51.3zM718.202 127.987h51.3v-51.3h-51.3v51.3zM718.202 230.588h51.3v-51.3h-51.3v51.3zM307.801 640.988h51.3v-51.3h-51.3v51.3zM307.801 538.388h51.3v-51.3h-51.3v51.3zM307.801 435.788h51.3v-51.3h-51.3v51.3zM307.801 333.188h51.3v-51.3h-51.3v51.3zM307.801 127.987h51.3v-51.3h-51.3v51.3zM307.801 230.588h51.3v-51.3h-51.3v51.3zM205.2 640.988h51.3v-51.3h-51.3v51.3zM205.2 538.388h51.3v-51.3h-51.3v51.3zM205.2 435.788h51.3v-51.3h-51.3v51.3zM205.2 333.188h51.3v-51.3h-51.3v51.3zM205.2 127.987h51.3v-51.3h-51.3v51.3zM205.2 230.588h51.3v-51.3h-51.3v51.3zM410.401 640.988h51.3v-51.3h-51.3v51.3zM410.401 538.388h51.3v-51.3h-51.3v51.3zM410.401 435.788h51.3v-51.3h-51.3v51.3zM410.401 333.188h51.3v-51.3h-51.3v51.3zM410.401 127.987h51.3v-51.3h-51.3v51.3zM410.401 230.588h51.3v-51.3h-51.3v51.3zM949.053-25.913h-25.65v692.552c0 39.134-29.080 79.482-66.207 91.857l-241.595 80.532v84.113c0 8.109-3.835 15.739-10.338 20.579-6.505 4.839-14.918 6.318-22.681 3.989l-463.866-139.158c-37.804-11.342-67.417-51.143-67.417-90.61v-743.852h-25.65c-14.166 0-25.65-11.483-25.65-25.65s11.484-25.65 25.65-25.65h923.403c14.167 0 25.65 11.483 25.65 25.65s-11.483 25.65-25.65 25.65zM840.974 709.828c16.291-5.429 31.127-26.015 31.127-43.188v-692.552h-256.5v810.865l225.373-75.124zM102.6 717.94c0 16.859 14.706 36.629 30.857 41.473l430.844 129.254v-914.579h-461.701v743.852z" />
<glyph unicode="&#xe802;" glyph-name="pencil" data-tags="pencil, write, edit" d="M980.014 902.802c-28.826 28.824-67.15 44.699-107.911 44.699-40.765 0-79.087-15.874-107.911-44.699l-654.077-654.077c-2.651-2.651-4.688-5.849-5.969-9.372l-102.6-282.151c-3.406-9.365-1.079-19.856 5.969-26.902 4.895-4.898 11.452-7.513 18.14-7.513 2.939 0 5.903 0.502 8.762 1.545l282.151 102.6c3.521 1.282 6.723 3.318 9.372 5.97l654.077 654.077c28.824 28.824 44.701 67.15 44.701 107.912s-15.874 79.087-44.701 107.911zM293.688 73.198l-225.149-81.87 81.872 225.147 567.791 567.791 143.277-143.277-567.791-567.791zM943.742 723.252l-45.989-45.989-143.277 143.277 45.989 45.989c19.136 19.136 44.577 29.672 71.638 29.672s52.502-10.538 71.639-29.674c19.136-19.136 29.674-44.577 29.674-71.638s-10.54-52.502-29.674-71.638z" />
<glyph unicode="&#xe803;" glyph-name="magic-wand" data-tags="magic-wand, tool, wizard" d="M589.952 589.688c-14.167 0-25.65 11.484-25.65 25.65 0 70.717-57.533 128.25-128.25 128.25-14.166 0-25.65 11.484-25.65 25.65s11.484 25.65 25.65 25.65c70.717 0 128.25 57.533 128.25 128.25 0 14.166 11.483 25.65 25.65 25.65s25.65-11.484 25.65-25.65c0-70.717 57.533-128.25 128.25-128.25 14.167 0 25.65-11.484 25.65-25.65s-11.483-25.65-25.65-25.65c-70.717 0-128.25-57.533-128.25-128.25 0-14.166-11.483-25.65-25.65-25.65zM528.458 769.24c25.16-15.166 46.328-36.334 61.494-61.496 15.166 25.162 36.334 46.33 61.496 61.496-25.162 15.166-46.33 36.334-61.496 61.496-15.166-25.162-36.334-46.33-61.494-61.496zM76.95 435.788c-14.166 0-25.65 11.484-25.65 25.65 0 14.143-11.507 25.65-25.65 25.65-14.166 0-25.65 11.484-25.65 25.65s11.484 25.65 25.65 25.65c14.143 0 25.65 11.507 25.65 25.65 0 14.166 11.484 25.65 25.65 25.65s25.65-11.484 25.65-25.65c0-14.143 11.507-25.65 25.65-25.65 14.166 0 25.65-11.484 25.65-25.65s-11.484-25.65-25.65-25.65c-14.143 0-25.65-11.507-25.65-25.65 0-14.166-11.484-25.65-25.65-25.65zM930.918 131.098l-543.055 543.054c-14.494 14.494-33.818 22.476-54.412 22.476s-39.918-7.982-54.412-22.476l-30.050-30.050c-14.494-14.494-22.476-33.818-22.476-54.412s7.982-39.918 22.476-54.412l543.054-543.052c14.492-14.494 33.816-22.478 54.41-22.478s39.918 7.981 54.412 22.478l30.052 30.050c14.494 14.492 22.476 33.818 22.476 54.41s-7.981 39.92-22.474 54.412zM285.263 607.826l30.050 30.050c4.805 4.805 11.246 7.449 18.138 7.449s13.333-2.646 18.138-7.449l73.835-73.837-66.327-66.327-73.835 73.835c-10.002 10.004-10.002 26.276 0 36.276zM894.641 58.55l-30.052-30.050c-4.804-4.804-11.246-7.448-18.135-7.448s-13.332 2.646-18.135 7.448l-432.947 432.944 66.327 66.325 432.943-432.944c10.001-10.001 10.001-26.274 0-36.273zM179.55 692.29c-14.166 0-25.65 11.484-25.65 25.65 0 42.429-34.521 76.95-76.95 76.95-14.166 0-25.65 11.484-25.65 25.65s11.484 25.65 25.65 25.65c42.429 0 76.95 34.521 76.95 76.95 0 14.166 11.484 25.65 25.65 25.65s25.65-11.484 25.65-25.65c0-42.429 34.521-76.95 76.95-76.95 14.166 0 25.65-11.484 25.65-25.65s-11.484-25.65-25.65-25.65c-42.429 0-76.95-34.521-76.95-76.95 0-14.166-11.484-25.65-25.65-25.65zM153.82 820.54c9.745-7.318 18.412-15.989 25.73-25.73 7.318 9.745 15.989 18.412 25.73 25.73-9.745 7.318-18.412 15.989-25.73 25.73-7.318-9.743-15.989-18.412-25.73-25.73zM179.55 179.288c-14.166 0-25.65 11.483-25.65 25.65 0 42.429-34.521 76.95-76.95 76.95-14.166 0-25.65 11.483-25.65 25.65s11.484 25.65 25.65 25.65c42.429 0 76.95 34.521 76.95 76.95 0 14.167 11.484 25.65 25.65 25.65s25.65-11.483 25.65-25.65c0-42.429 34.521-76.95 76.95-76.95 14.166 0 25.65-11.483 25.65-25.65s-11.484-25.65-25.65-25.65c-42.429 0-76.95-34.521-76.95-76.95 0-14.167-11.484-25.65-25.65-25.65zM153.82 307.538c9.745-7.316 18.412-15.989 25.73-25.73 7.318 9.743 15.989 18.41 25.73 25.73-9.745 7.316-18.412 15.989-25.73 25.73-7.318-9.743-15.989-18.414-25.73-25.73z" />
<glyph unicode="&#xe804;" glyph-name="drop" data-tags="drop, droplet, water, color, liquid" d="M513.001-77.213c-82.781 0-159.952 33.616-217.301 94.656-58.127 61.867-90.138 146.673-90.139 238.794 0 150.972 67.11 259.005 138.163 373.382 54.897 88.369 111.661 179.748 144.53 300.269 3.044 11.16 13.181 18.9 24.747 18.9s21.703-7.742 24.747-18.9c32.877-120.553 89.736-211.95 144.72-300.338 71.138-114.355 138.332-222.367 138.332-373.313 0-92.311-31.811-177.109-89.569-238.767-57.197-61.058-134.7-94.683-218.231-94.683zM513.004 840.37c-34.577-91.127-80.747-165.448-125.705-237.819-69.992-112.671-130.438-209.976-130.438-346.311 0-160.853 110.117-282.151 256.14-282.151 146.23 0 256.5 121.297 256.5 282.151 0 136.293-60.518 233.573-130.593 346.215-45.038 72.396-91.29 146.747-125.905 237.915z" />
<glyph unicode="&#xe805;" glyph-name="lighter" data-tags="lighter, fire" d="M897.753 487.088h-35.398l-43.872 88.358c-4.333 8.725-13.234 14.242-22.974 14.242h-205.559c-14.167 0-25.65-11.484-25.65-25.65v-76.95h-62.143l-197.796 342.591c-7.083 12.267-22.769 16.475-35.038 9.388l-177.709-102.6c-12.269-7.083-16.472-22.77-9.388-35.038l205.2-355.417c4.752-8.229 13.372-12.831 22.238-12.831 4.35 0 8.764 1.109 12.801 3.44l139.234 80.387v-417.272c0-14.167 11.484-25.65 25.65-25.65h410.401c14.167 0 25.65 11.483 25.65 25.65v461.701c0 14.167-11.483 25.65-25.65 25.65zM872.103 179.288h-51.3v153.9h51.3v-153.9zM615.602 538.388h164.006l25.472-51.3h-189.479v51.3zM319.031 393.874l-179.55 310.989 133.281 76.95 179.55-310.989-133.281-76.95zM513.001 25.387v410.401h333.288c0.061 0 0.12-0.006 0.181-0.006 0.035 0 0.074 0.006 0.11 0.006h25.52v-51.3h-76.95c-14.167 0-25.65-11.483-25.65-25.65v-205.2c0-14.167 11.483-25.65 25.65-25.65h76.95v-102.6h-359.101zM795.153 640.988c-38.486 0-57.195 18.178-66.114 33.429-16.957 28.994-14.122 72.732 8.67 133.709 15.323 40.995 34.285 74.866 35.086 76.287 4.542 8.077 13.090 13.076 22.356 13.076s17.812-4.999 22.356-13.076c0.8-1.421 19.763-35.292 35.086-76.287 22.793-60.978 25.628-104.714 8.67-133.709-8.919-15.251-27.628-33.429-66.114-33.429zM795.155 813.382c-3.238-7.468-6.514-15.491-9.599-23.776-23.264-62.501-15.241-84.148-12.229-89.294 1.284-2.194 4.695-8.022 21.826-8.022 17.135 0 20.546 5.833 21.829 8.027 3.027 5.175 11.072 26.943-12.442 89.85-3.027 8.101-6.226 15.926-9.386 23.217z" />
<glyph unicode="&#xe806;" glyph-name="poop" data-tags="poop, toilet, feces, crap" d="M875.042 266.351c-3.974 2.25-8.064 4.451-12.246 6.612 49.011 38.419 60.608 80.419 60.608 111.525 0 72.816-61.198 136.194-162.859 174.867 5.887 18.001 8.959 36.952 8.959 55.985 0 99.005-80.547 179.55-179.55 179.55-35.103 0-76.95 8.901-76.95 51.3 0 23.244 29.632 48.635 39.95 55.655 9.372 6.292 13.527 17.972 10.238 28.768s-13.25 18.177-24.538 18.177c-80.402 0-163.014-26.42-226.653-72.488-32.474-23.507-58.245-50.694-76.6-80.808-20.038-32.878-30.197-67.602-30.197-103.207 0-14.772 1.245-29.45 3.616-43.883-43.554-21.034-80.348-48.808-107.228-81.091-32.899-39.515-50.288-84.996-50.288-131.526 0-28.020 6.289-56.582 18.242-84.199-45.579-43.796-69.542-94.163-69.542-146.651 0-78.246 52.71-150.622 148.423-203.795 90.951-50.528 211.318-78.356 338.929-78.356 131.213 0 250.275 17.063 335.257 48.043 125.707 45.828 152.094 110.758 152.094 157.157 0 37.363-17.29 91.697-99.661 138.363zM805.037 19.026c-79.492-28.979-192.315-44.939-317.686-44.939-119.038 0-230.557 25.535-314.015 71.9-78.696 43.72-122.036 100.17-122.036 158.95 0 40.906 21.044 74.925 44.452 100.132 5.897-8.394 12.331-16.605 19.315-24.574 40.851-46.627 97.659-82.213 159.962-100.201 2.375-0.687 4.772-1.013 7.126-1.013 11.136 0 21.389 7.308 24.632 18.54 3.93 13.61-3.918 27.828-17.528 31.76-106.414 30.722-186.658 119.374-186.658 206.207 0 62.797 45.125 123.066 119.503 161.871 26.878-74.003 83.607-135.483 154.098-160.404 2.828-1 5.713-1.472 8.549-1.472 10.564 0 20.461 6.578 24.184 17.108 4.722 13.356-2.278 28.011-15.633 32.733-77.989 27.571-136.8 116.42-136.8 206.668 0 51.92 30.393 102.512 85.578 142.457 38.164 27.625 84.274 47.087 132.229 56.438-7.411-13.218-12.606-28.405-12.606-44.995 0-49.598 33.692-102.6 128.25-102.6 70.717 0 128.25-57.533 128.25-128.25 0-13.895-2.161-27.35-6.415-40.209-20.926 5.695-43.118 10.473-66.456 14.233-13.983 2.25-27.151-7.259-29.404-21.245-2.25-13.986 7.259-27.151 21.247-29.404 71.173-11.464 131.502-33.216 174.468-62.909 27.582-19.060 60.46-50.375 60.46-91.316 0-33.086-21.972-62.482-65.33-87.488-46.919 16.693-101.886 28.931-162.547 36.016-14.071 1.658-26.81-8.429-28.453-22.5s8.43-26.81 22.5-28.453c86.496-10.105 159.624-30.97 211.479-60.348 33.6-19.033 73.65-50.745 73.65-93.727 0-54.392-64.368-89.275-118.365-108.961z" />
<glyph unicode="&#xe807;" glyph-name="sun" data-tags="sun, brightness, weather" d="M487.351 179.666c-127.082 0-230.472 103.389-230.472 230.472s103.391 230.472 230.472 230.472 230.472-103.391 230.472-230.472-103.391-230.472-230.472-230.472zM487.351 589.31c-98.795 0-179.172-80.375-179.172-179.172s80.375-179.172 179.172-179.172 179.172 80.375 179.172 179.172-80.375 179.172-179.172 179.172zM487.351 692.29c-14.166 0-25.65 11.484-25.65 25.65v153.9c0 14.166 11.484 25.65 25.65 25.65s25.65-11.484 25.65-25.65v-153.9c0-14.166-11.484-25.65-25.65-25.65zM487.351-77.213c-14.166 0-25.65 11.483-25.65 25.65v153.9c0 14.167 11.484 25.65 25.65 25.65s25.65-11.483 25.65-25.65v-153.9c0-14.167-11.484-25.65-25.65-25.65zM179.55 384.488h-153.9c-14.166 0-25.65 11.483-25.65 25.65s11.484 25.65 25.65 25.65h153.9c14.166 0 25.65-11.483 25.65-25.65s-11.484-25.65-25.65-25.65zM949.053 384.488h-153.9c-14.167 0-25.65 11.483-25.65 25.65s11.483 25.65 25.65 25.65h153.9c14.167 0 25.65-11.483 25.65-25.65s-11.483-25.65-25.65-25.65zM230.85 640.988c-6.564 0-13.128 2.503-18.137 7.512l-102.6 102.6c-10.018 10.018-10.018 26.258 0 36.273s26.258 10.018 36.273 0l102.6-102.6c10.018-10.018 10.018-26.258 0-36.273-5.008-5.008-11.572-7.512-18.138-7.512zM128.25 25.387c-6.564 0-13.128 2.503-18.137 7.513-10.018 10.017-10.018 26.258 0 36.273l102.6 102.6c10.017 10.017 26.258 10.017 36.273 0s10.018-26.258 0-36.273l-102.6-102.6c-5.010-5.010-11.572-7.513-18.138-7.513zM846.453 25.387c-6.564 0-13.128 2.503-18.137 7.513l-102.6 102.6c-10.018 10.017-10.018 26.258 0 36.273 10.017 10.017 26.258 10.017 36.273 0l102.6-102.6c10.018-10.017 10.018-26.258 0-36.273-5.010-5.010-11.572-7.513-18.138-7.513zM743.852 640.988c-6.564 0-13.128 2.503-18.137 7.513-10.018 10.017-10.018 26.258 0 36.273l102.6 102.6c10.017 10.018 26.258 10.018 36.273 0 10.018-10.017 10.018-26.258 0-36.273l-102.6-102.6c-5.010-5.010-11.572-7.513-18.138-7.513z" />
<glyph unicode="&#xe808;" glyph-name="moon" data-tags="moon, night" d="M525.827-77.213c-140.453 0-272.5 54.695-371.816 154.010s-154.010 231.362-154.010 371.816c0 115.468 37.072 224.448 107.207 315.161 33.594 43.449 73.818 81.313 119.559 112.543 46.14 31.502 96.853 55.532 150.731 71.425 9.839 2.907 20.464-0.336 27.009-8.238s7.754-18.942 3.070-28.070c-33.070-64.465-48.473-125.948-48.473-193.493 0-240.44 195.612-436.051 436.051-436.051 67.546 0 129.028 15.401 193.493 48.472 9.125 4.684 20.17 3.475 28.070-3.070s11.142-17.168 8.24-27.009c-15.893-53.879-39.923-104.591-71.426-150.729-31.226-45.74-69.092-85.965-112.543-119.559-90.714-70.134-199.696-107.207-315.161-107.207zM337.055 878.757c-173.079-74.126-285.755-240.529-285.755-430.144 0-261.655 212.872-474.526 474.526-474.526 189.604 0 356.009 112.695 430.144 285.755-52.508-19.636-105.579-29.255-160.818-29.255-130.176 0-252.56 50.693-344.609 142.74-92.049 92.050-142.742 214.434-142.742 344.611 0 55.239 9.618 108.31 29.255 160.818z" />
<glyph unicode="&#xe809;" glyph-name="cloud" data-tags="cloud, weather" d="M821.123 127.987h-513.322c-169.722 0-307.801 138.080-307.801 307.801s138.080 307.801 307.801 307.801c82.194 0 160.903-32.981 218.53-91.044 4.491 9.967 10.068 19.507 16.675 28.459 28.926 39.188 75.239 62.584 123.895 62.584 84.862 0 153.9-69.038 153.9-153.9 0-17.993-3.124-35.593-9.114-52.153 3.132 0.142 6.279 0.211 9.434 0.211 112.97 0 204.88-91.91 204.88-204.88s-91.91-204.88-204.88-204.88zM307.801 692.29c-141.434 0-256.5-115.064-256.5-256.5s115.066-256.5 256.5-256.5h513.322c84.684 0 153.58 68.896 153.58 153.58s-68.896 153.58-153.58 153.58c-18.164 0-35.864-3.107-52.609-9.24-11.188-4.096-23.723 0.050-30.262 10.009s-5.359 23.11 2.848 31.747c18.316 19.273 28.403 44.393 28.403 70.727 0 56.574-46.026 102.6-102.6 102.6-32.922 0-63.035-15.217-82.618-41.749-11.822-16.018-18.705-34.775-19.905-54.244-0.672-10.872-8.133-20.136-18.61-23.1-10.482-2.972-21.69 1.008-27.96 9.911-5.644 8.013-11.752 15.731-18.162 22.946-48.682 54.803-118.606 86.234-191.844 86.234z" />
<glyph unicode="&#xe80a;" glyph-name="cloud-upload" data-tags="cloud-upload, cloud" d="M821.123 127.987h-179.871c-14.167 0-25.65 11.483-25.65 25.65s11.483 25.65 25.65 25.65h179.871c84.684 0 153.58 68.896 153.58 153.58s-68.896 153.58-153.58 153.58c-18.041 0-35.696-3.092-52.47-9.191-11.19-4.064-23.7 0.099-30.222 10.055-6.519 9.958-5.333 23.094 2.865 31.721 18.19 19.144 28.208 44.236 28.208 70.656 0 56.574-46.026 102.6-102.6 102.6-32.922 0-63.035-15.217-82.618-41.749-11.726-15.891-18.569-34.706-19.784-54.413-0.672-10.889-8.157-20.162-18.658-23.115s-21.724 1.061-27.969 10.004l-0.238 0.342c-5.5 7.811-11.571 15.473-17.988 22.697-48.682 54.801-118.606 86.232-191.844 86.232-141.434 0-256.5-115.066-256.5-256.5 0-141.436 115.066-256.5 256.5-256.5h128.25c14.166 0 25.65-11.483 25.65-25.65s-11.484-25.65-25.65-25.65h-128.25c-169.722 0-307.801 138.080-307.801 307.801s138.080 307.801 307.801 307.801c82.21 0 160.935-32.997 218.568-91.079 4.478 10.009 10.046 19.558 16.64 28.494 28.923 39.188 75.236 62.584 123.892 62.584 84.862 0 153.9-69.038 153.9-153.9 0-18.012-3.105-35.612-9.053-52.152 3.116 0.139 6.242 0.21 9.375 0.21 112.97 0 204.88-91.91 204.88-204.88-0.002-112.97-91.911-204.88-204.882-204.88zM659.388 325.675l-102.6 102.6c-10.017 10.017-26.258 10.017-36.273 0l-102.6-102.6c-10.017-10.017-10.017-26.258 0-36.273s26.258-10.017 36.275 0l58.812 58.812v-194.575c0-14.167 11.483-25.65 25.65-25.65s25.65 11.483 25.65 25.65v194.575l58.813-58.812c5.008-5.008 11.571-7.512 18.137-7.512s13.128 2.503 18.137 7.513c10.018 10.017 10.018 26.257 0 36.272z" />
<glyph unicode="&#xe80b;" glyph-name="cloud-download" data-tags="cloud-download, cloud" d="M821.123 127.987h-128.571c-14.167 0-25.65 11.483-25.65 25.65s11.483 25.65 25.65 25.65h128.571c84.684 0 153.58 68.896 153.58 153.58s-68.896 153.58-153.58 153.58c-18.041 0-35.696-3.092-52.47-9.191-11.19-4.064-23.7 0.099-30.222 10.055-6.519 9.958-5.333 23.094 2.865 31.721 18.19 19.144 28.208 44.236 28.208 70.656 0 56.574-46.026 102.6-102.6 102.6-32.922 0-63.035-15.217-82.618-41.749-11.726-15.891-18.569-34.706-19.784-54.413-0.672-10.889-8.157-20.162-18.658-23.115s-21.724 1.061-27.969 10.004l-0.238 0.342c-5.5 7.811-11.571 15.473-17.988 22.697-48.682 54.801-118.606 86.232-191.844 86.232-141.434 0-256.5-115.066-256.5-256.5 0-141.436 115.066-256.5 256.5-256.5h76.95c14.166 0 25.65-11.483 25.65-25.65s-11.484-25.65-25.65-25.65h-76.95c-169.722 0-307.801 138.080-307.801 307.801s138.080 307.801 307.801 307.801c82.21 0 160.935-32.997 218.568-91.079 4.478 10.009 10.046 19.558 16.64 28.494 28.923 39.188 75.236 62.584 123.892 62.584 84.862 0 153.9-69.038 153.9-153.9 0-18.012-3.105-35.612-9.053-52.152 3.116 0.139 6.242 0.21 9.375 0.21 112.97 0 204.88-91.91 204.88-204.88-0.002-112.97-91.911-204.88-204.882-204.88zM659.388 274.374c-10.017 10.017-26.258 10.017-36.273 0l-58.812-58.81v194.575c0 14.167-11.483 25.65-25.65 25.65s-25.65-11.483-25.65-25.65v-194.575l-58.812 58.812c-10.018 10.017-26.258 10.017-36.275 0s-10.017-26.258 0-36.273l102.6-102.6c5.010-5.010 11.572-7.513 18.138-7.513s13.128 2.503 18.137 7.513l102.6 102.6c10.018 10.017 10.018 26.257 0 36.272z" />
<glyph unicode="&#xe80c;" glyph-name="cloud-sync" data-tags="cloud-sync, cloud" d="M821.123 537.748c-3.132 0-6.257-0.070-9.375-0.21 5.95 16.539 9.055 34.14 9.055 52.152 0 84.862-69.038 153.9-153.9 153.9-48.655 0-94.968-23.396-123.892-62.584-6.594-8.936-12.162-18.487-16.64-28.496-57.634 58.084-136.359 91.080-218.568 91.080-169.722 0-307.801-138.080-307.801-307.801s138.080-307.801 307.801-307.801h513.322c112.97 0 204.88 91.91 204.88 204.88s-91.91 204.88-204.88 204.88zM821.123 179.288h-513.322c-141.434 0-256.5 115.064-256.5 256.5 0 141.434 115.066 256.5 256.5 256.5 73.239 0 143.163-31.432 191.843-86.234 6.415-7.224 12.486-14.888 17.988-22.697l0.238-0.342c6.246-8.941 17.461-12.956 27.969-10.004 10.502 2.953 17.988 12.226 18.658 23.115 1.215 19.707 8.056 38.524 19.784 54.413 19.584 26.534 49.697 41.751 82.62 41.751 56.574 0 102.6-46.026 102.6-102.6 0-26.42-10.018-51.513-28.208-70.656-8.198-8.627-9.384-21.764-2.865-31.721s19.032-14.121 30.222-10.055c16.778 6.098 34.433 9.191 52.47 9.191 84.684 0 153.58-68.896 153.58-153.58s-68.896-153.58-153.58-153.58zM328.508 335.274c-6.763-1.383-13.728-2.086-20.707-2.086-56.574 0-102.6 46.026-102.6 102.6v15.027l7.513-7.513c5.008-5.008 11.571-7.512 18.137-7.512s13.128 2.503 18.137 7.513c10.018 10.017 10.018 26.258 0 36.273l-51.3 51.3c-10.017 10.018-26.258 10.018-36.273 0l-51.3-51.3c-10.018-10.017-10.018-26.258 0-36.273 10.017-10.018 26.258-10.018 36.273 0l7.513 7.512v-15.027c0-84.862 69.038-153.9 153.9-153.9 10.425 0 20.85 1.052 30.988 3.124 13.881 2.84 22.828 16.394 19.99 30.273s-16.384 22.817-30.271 19.99zM469.215 428.275l-7.513-7.512v15.027c0 84.862-69.038 153.9-153.9 153.9-10.423 0-20.85-1.052-30.988-3.126-13.879-2.84-22.826-16.392-19.989-30.271s16.392-22.828 30.271-19.989c6.763 1.383 13.727 2.084 20.707 2.084 56.574 0 102.6-46.026 102.6-102.6v-15.027l-7.513 7.513c-10.017 10.017-26.258 10.017-36.273 0-10.018-10.017-10.018-26.258 0-36.273l51.3-51.3c5.008-5.010 11.571-7.513 18.137-7.513s13.128 2.503 18.137 7.513l51.3 51.3c10.018 10.017 10.018 26.258 0 36.273-10.017 10.017-26.257 10.017-36.272-0.002z" />
<glyph unicode="&#xe80d;" glyph-name="cloud-check" data-tags="cloud-check, cloud" d="M820.803 127.987h-487.351c-14.166 0-25.65 11.483-25.65 25.65s11.484 25.65 25.65 25.65h487.351c84.862 0 153.9 69.038 153.9 153.9s-69.038 153.9-153.9 153.9c-17.61 0-34.865-2.942-51.281-8.744-11.123-3.93-23.497 0.234-29.98 10.095-6.481 9.86-5.399 22.871 2.622 31.526 17.629 19.024 27.34 43.785 27.34 69.723 0 56.574-46.026 102.6-102.6 102.6-54.103 0-99.082-42.244-102.398-96.174-0.669-10.88-8.141-20.147-18.63-23.11-10.494-2.966-21.706 1.029-27.966 9.95-48.051 68.46-126.595 109.334-210.106 109.334-141.434 0-256.5-115.064-256.5-256.5 0-7.786 0.352-15.641 1.047-23.347 1.271-14.11-9.135-26.577-23.244-27.849-14.108-1.28-26.577 9.135-27.849 23.244-0.832 9.229-1.253 18.634-1.253 27.952 0 169.722 138.080 307.801 307.801 307.801 82.645 0 161.231-33.352 218.575-91.111 24.141 53.852 78.312 91.111 140.525 91.111 84.862 0 153.9-69.038 153.9-153.9 0-17.744-3.030-35.124-8.836-51.486 2.937 0.123 5.882 0.186 8.836 0.186 113.146 0 205.2-92.054 205.2-205.2s-92.054-205.2-205.2-205.2zM179.55 153.638c-6.564 0-13.128 2.503-18.138 7.513l-102.6 102.6c-10.017 10.017-10.017 26.258 0 36.273s26.258 10.017 36.275 0l84.462-84.462 238.364 238.364c10.018 10.017 26.258 10.017 36.275 0s10.017-26.258 0-36.273l-256.5-256.5c-5.010-5.010-11.572-7.513-18.138-7.513z" />
<glyph unicode="&#xe80e;" glyph-name="database" data-tags="database, storage" d="M926.849 866.249c-25.479 16.733-61.197 31.55-106.163 44.041-89.374 24.826-207.756 38.5-333.336 38.5s-243.961-13.672-333.337-38.5c-44.965-12.491-80.684-27.308-106.163-44.041-31.752-20.853-47.852-44.862-47.852-71.361v-615.602c0-26.498 16.101-50.508 47.852-71.362 25.479-16.733 61.197-31.55 106.163-44.040 89.376-24.827 207.758-38.5 333.337-38.5s243.961 13.671 333.337 38.502c44.966 12.49 80.684 27.307 106.163 44.040 31.752 20.851 47.852 44.862 47.852 71.361v615.602c0 26.498-16.101 50.506-47.854 71.361zM167.746 860.861c85.030 23.62 198.537 36.629 319.606 36.629s234.575-13.008 319.606-36.629c92.108-25.586 116.446-54.341 116.446-65.971s-24.338-40.385-116.446-65.971c-85.032-23.62-198.537-36.629-319.606-36.629s-234.576 13.008-319.606 36.629c-92.108 25.586-116.446 54.341-116.446 65.971s24.338 40.385 116.446 65.971zM806.957 113.316c-85.032-23.62-198.537-36.629-319.606-36.629s-234.575 13.008-319.606 36.629c-92.108 25.586-116.446 54.341-116.446 65.971v131.646c25.218-15.833 59.727-29.904 102.714-41.847 89.376-24.827 207.758-38.5 333.337-38.5s243.961 13.671 333.337 38.502c42.986 11.941 77.499 26.012 102.714 41.847v-131.647c0-11.63-24.338-40.385-116.446-65.971zM806.957 318.517c-85.032-23.62-198.537-36.629-319.606-36.629s-234.575 13.008-319.606 36.629c-92.108 25.586-116.446 54.341-116.446 65.971v131.647c25.218-15.833 59.727-29.906 102.714-41.848 89.376-24.826 207.758-38.5 333.337-38.5s243.961 13.672 333.337 38.5c42.986 11.942 77.499 26.013 102.714 41.848v-131.647c0-11.63-24.338-40.385-116.446-65.971zM806.957 523.717c-85.032-23.62-198.537-36.629-319.606-36.629s-234.575 13.008-319.606 36.629c-92.108 25.586-116.446 54.341-116.446 65.971v131.647c25.218-15.833 59.727-29.906 102.714-41.848 89.376-24.826 207.758-38.5 333.337-38.5s243.961 13.672 333.337 38.5c42.986 11.942 77.499 26.013 102.714 41.848v-131.647c0-11.63-24.338-40.385-116.446-65.971z" />
<glyph unicode="&#xe80f;" glyph-name="lock" data-tags="lock, privacy, encryption, security" d="M743.852 538.388h-25.65v76.95c0 127.291-103.559 230.85-230.85 230.85s-230.85-103.559-230.85-230.85v-76.95h-25.65c-42.429 0-76.95-34.521-76.95-76.95v-410.401c0-42.429 34.521-76.95 76.95-76.95h513.001c42.429 0 76.95 34.521 76.95 76.95v410.401c0 42.429-34.521 76.95-76.95 76.95zM307.801 615.338c0 99.005 80.547 179.55 179.55 179.55s179.55-80.547 179.55-179.55v-76.95h-359.101v76.95zM769.502 51.037c0-14.143-11.507-25.65-25.65-25.65h-513.001c-14.143 0-25.65 11.507-25.65 25.65v410.401c0 14.143 11.507 25.65 25.65 25.65h513.001c14.143 0 25.65-11.507 25.65-25.65v-410.401z" />
<glyph unicode="&#xe810;" glyph-name="cog" data-tags="cog, gear, preferences, settings, generate, control, options" d="M391.474-61.938c-2.113 0-4.256 0.262-6.39 0.812-46.066 11.827-90.325 30.1-131.547 54.316-11.947 7.017-16.162 22.254-9.519 34.412 8.166 14.955 12.483 31.928 12.483 49.088 0 56.574-46.026 102.6-102.6 102.6-17.159 0-34.132-4.317-49.088-12.483-12.157-6.639-27.393-2.425-34.41 9.519-24.218 41.222-42.49 85.481-54.317 131.549-3.339 13.015 3.928 26.401 16.661 30.689 41.781 14.065 69.853 53.138 69.853 97.227s-28.072 83.162-69.854 97.23c-12.731 4.286-20.002 17.672-16.659 30.687 11.827 46.066 30.1 90.325 54.317 131.547 7.017 11.947 22.254 16.162 34.412 9.519 14.953-8.166 31.926-12.483 49.086-12.483 56.574 0 102.6 46.026 102.6 102.6 0 17.16-4.317 34.133-12.483 49.086-6.641 12.158-2.426 27.395 9.519 34.412 41.221 24.216 85.48 42.49 131.547 54.317 13.020 3.34 26.401-3.928 30.687-16.659 14.068-41.783 53.141-69.854 97.23-69.854s83.162 28.072 97.228 69.853c4.288 12.734 17.679 20.005 30.689 16.661 46.066-11.826 90.326-30.1 131.549-54.317 11.946-7.017 16.16-22.252 9.519-34.41-8.168-14.956-12.485-31.929-12.485-49.088 0-56.574 46.026-102.6 102.6-102.6 17.16 0 34.133 4.317 49.088 12.483 12.162 6.641 27.395 2.425 34.412-9.519 24.214-41.221 42.488-85.48 54.316-131.547 3.34-13.015-3.926-26.401-16.659-30.687-41.783-14.068-69.854-53.141-69.854-97.23s28.072-83.162 69.854-97.228c12.731-4.288 20.002-17.672 16.659-30.689-11.827-46.066-30.1-90.326-54.316-131.547-7.019-11.949-22.252-16.16-34.412-9.52-14.956 8.168-31.929 12.485-49.088 12.485-56.574 0-102.6-46.026-102.6-102.6 0-17.159 4.317-34.132 12.485-49.088 6.639-12.16 2.425-27.395-9.52-34.412-41.221-24.214-85.48-42.488-131.547-54.316-13.018-3.342-26.401 3.926-30.689 16.659-14.066 41.783-53.139 69.854-97.228 69.854s-83.162-28.072-97.23-69.854c-3.585-10.644-13.528-17.471-24.298-17.471zM513.001 76.687c57.827 0 109.907-32.2 136.183-82.189 26.689 8.234 52.609 18.911 77.451 31.908-5.551 16.109-8.432 33.139-8.432 50.28 0 84.862 69.038 153.9 153.9 153.9 17.141 0 34.172-2.881 50.279-8.434 12.997 24.84 23.676 50.762 31.908 77.451-49.988 26.278-82.187 78.356-82.187 136.184s32.2 109.905 82.189 136.184c-8.234 26.689-18.911 52.608-31.908 77.451-16.109-5.552-33.138-8.434-50.28-8.434-84.862 0-153.9 69.038-153.9 153.9 0 17.141 2.881 34.172 8.434 50.279-24.84 12.997-50.762 23.676-77.451 31.908-26.278-49.988-78.356-82.187-136.184-82.187s-109.905 32.2-136.183 82.187c-26.689-8.232-52.609-18.91-77.451-31.908 5.552-16.107 8.432-33.136 8.432-50.279 0-84.862-69.038-153.9-153.9-153.9-17.143 0-34.172 2.88-50.279 8.434-12.999-24.842-23.676-50.762-31.908-77.451 49.988-26.279 82.187-78.356 82.187-136.184s-32.2-109.907-82.187-136.183c8.232-26.689 18.911-52.609 31.908-77.451 16.107 5.551 33.138 8.432 50.279 8.432 84.862 0 153.9-69.038 153.9-153.9 0-17.143-2.881-34.172-8.434-50.279 24.842-12.997 50.762-23.676 77.451-31.908 26.279 49.988 78.356 82.187 136.184 82.187zM513.001 281.888c-84.862 0-153.9 69.038-153.9 153.9s69.038 153.9 153.9 153.9 153.9-69.038 153.9-153.9-69.038-153.9-153.9-153.9zM513.001 538.388c-56.574 0-102.6-46.026-102.6-102.6s46.026-102.6 102.6-102.6c56.574 0 102.6 46.026 102.6 102.6s-46.026 102.6-102.6 102.6z" />
<glyph unicode="&#xe811;" glyph-name="trash" data-tags="trash, bin, remove, waste" d="M795.153 846.19h-179.55v25.65c0 42.429-34.521 76.95-76.95 76.95h-102.6c-42.429 0-76.95-34.521-76.95-76.95v-25.65h-179.55c-42.429 0-76.95-34.521-76.95-76.95v-51.3c0-33.439 21.445-61.949 51.3-72.539v-645.664c0-42.431 34.521-76.95 76.95-76.95h513.001c42.431 0 76.95 34.519 76.95 76.95v645.664c29.855 10.588 51.3 39.1 51.3 72.539v51.3c0 42.429-34.519 76.95-76.95 76.95zM410.401 871.84c0 14.143 11.507 25.65 25.65 25.65h102.6c14.143 0 25.65-11.507 25.65-25.65v-25.65h-153.9v25.65zM743.852-25.913h-513.001c-14.143 0-25.65 11.507-25.65 25.65v641.252h564.302v-641.252c0-14.143-11.507-25.65-25.65-25.65zM820.803 717.94c0-14.143-11.507-25.65-25.65-25.65h-615.602c-14.143 0-25.65 11.507-25.65 25.65v51.3c0 14.143 11.507 25.65 25.65 25.65h615.602c14.143 0 25.65-11.507 25.65-25.65v-51.3zM641.252 589.688c-14.167 0-25.65-11.484-25.65-25.65v-513.001c0-14.167 11.483-25.65 25.65-25.65s25.65 11.483 25.65 25.65v513.001c0 14.166-11.483 25.65-25.65 25.65zM487.351 589.688c-14.166 0-25.65-11.484-25.65-25.65v-513.001c0-14.167 11.484-25.65 25.65-25.65s25.65 11.483 25.65 25.65v513.001c0 14.166-11.484 25.65-25.65 25.65zM333.451 589.688c-14.166 0-25.65-11.484-25.65-25.65v-513.001c0-14.167 11.484-25.65 25.65-25.65s25.65 11.483 25.65 25.65v513.001c0 14.166-11.484 25.65-25.65 25.65z" />
<glyph unicode="&#xe812;" glyph-name="dice" data-tags="dice, game, random, board-game" d="M282.151 127.987c-42.429 0-76.95 34.519-76.95 76.95s34.521 76.95 76.95 76.95 76.95-34.519 76.95-76.95-34.521-76.95-76.95-76.95zM282.151 230.588c-14.143 0-25.65-11.507-25.65-25.65s11.507-25.65 25.65-25.65 25.65 11.507 25.65 25.65-11.507 25.65-25.65 25.65zM282.151 333.188c-42.429 0-76.95 34.519-76.95 76.95s34.521 76.95 76.95 76.95 76.95-34.519 76.95-76.95-34.521-76.95-76.95-76.95zM282.151 435.788c-14.143 0-25.65-11.507-25.65-25.65s11.507-25.65 25.65-25.65 25.65 11.507 25.65 25.65-11.507 25.65-25.65 25.65zM282.151 538.388c-42.429 0-76.95 34.521-76.95 76.95s34.521 76.95 76.95 76.95 76.95-34.521 76.95-76.95-34.521-76.95-76.95-76.95zM282.151 640.988c-14.143 0-25.65-11.507-25.65-25.65s11.507-25.65 25.65-25.65 25.65 11.507 25.65 25.65-11.507 25.65-25.65 25.65zM692.552 538.388c-42.431 0-76.95 34.521-76.95 76.95s34.519 76.95 76.95 76.95 76.95-34.521 76.95-76.95-34.519-76.95-76.95-76.95zM692.552 640.988c-14.143 0-25.65-11.507-25.65-25.65s11.507-25.65 25.65-25.65 25.65 11.507 25.65 25.65-11.507 25.65-25.65 25.65zM692.552 333.188c-42.431 0-76.95 34.519-76.95 76.95s34.519 76.95 76.95 76.95 76.95-34.519 76.95-76.95-34.519-76.95-76.95-76.95zM692.552 435.788c-14.143 0-25.65-11.507-25.65-25.65s11.507-25.65 25.65-25.65 25.65 11.507 25.65 25.65-11.507 25.65-25.65 25.65zM692.552 127.987c-42.431 0-76.95 34.519-76.95 76.95s34.519 76.95 76.95 76.95 76.95-34.519 76.95-76.95-34.519-76.95-76.95-76.95zM692.552 230.588c-14.143 0-25.65-11.507-25.65-25.65s11.507-25.65 25.65-25.65 25.65 11.507 25.65 25.65-11.507 25.65-25.65 25.65zM795.153-25.913h-615.602c-70.717 0-128.25 57.533-128.25 128.25v615.602c0 70.717 57.533 128.25 128.25 128.25h615.602c70.717 0 128.25-57.533 128.25-128.25v-615.602c0-70.717-57.533-128.25-128.25-128.25zM179.55 794.89c-42.429 0-76.95-34.521-76.95-76.95v-615.602c0-42.431 34.521-76.95 76.95-76.95h615.602c42.431 0 76.95 34.519 76.95 76.95v615.602c0 42.429-34.519 76.95-76.95 76.95h-615.602z" />
<glyph unicode="&#xe813;" glyph-name="heart" data-tags="heart, love, like, favorite" d="M487.351-25.913c-4.291 0-8.582 1.076-12.458 3.228-4.818 2.676-119.321 66.754-235.582 171.712-68.777 62.092-123.709 125.609-163.262 188.786-50.463 80.601-76.049 161.029-76.049 239.050 0 148.508 120.818 269.326 269.326 269.326 50.271 0 103.664-18.841 150.345-53.056 27.305-20.013 50.54-44.129 67.681-69.742 17.141 25.615 40.377 49.732 67.682 69.742 46.681 34.213 100.074 53.056 150.344 53.056 148.508 0 269.326-120.818 269.326-269.326 0-78.021-25.588-158.451-76.049-239.050-39.556-63.178-94.485-126.694-163.262-188.786-116.261-104.958-230.764-169.036-235.582-171.712-3.875-2.153-8.166-3.228-12.458-3.228zM269.326 794.89c-120.22 0-218.026-97.805-218.026-218.026 0-155.928 120.538-297.658 221.656-389.098 90.307-81.664 181.795-138.93 214.394-158.351 32.6 19.422 124.087 76.688 214.394 158.351 101.12 91.439 221.656 233.169 221.656 389.098 0 120.22-97.807 218.026-218.026 218.026-87.357 0-172.192-71.865-193.692-136.362-3.491-10.473-13.293-17.538-24.334-17.538s-20.842 7.065-24.334 17.538c-21.498 64.497-106.333 136.362-193.692 136.362z" />
<glyph unicode="&#xe814;" glyph-name="star" data-tags="star, rating, favorite" d="M795.151-25.913c-4.213 0-8.438 1.036-12.282 3.132l-269.868 147.2-269.868-147.2c-8.614-4.701-19.156-4.069-27.151 1.617-7.997 5.689-12.046 15.44-10.433 25.119l49.13 294.782-195.865 195.867c-6.795 6.795-9.221 16.814-6.289 25.964s10.732 15.894 20.21 17.472l294.917 49.154 122.409 244.817c4.344 8.69 13.226 14.18 22.942 14.18s18.598-5.488 22.942-14.18l122.409-244.817 294.917-49.154c9.477-1.58 17.277-8.323 20.21-17.472s0.504-19.171-6.289-25.964l-195.865-195.867 49.13-294.782c1.614-9.677-2.438-19.43-10.433-25.119-4.427-3.15-9.639-4.749-14.87-4.749zM513.001 179.288c4.227 0 8.453-1.044 12.283-3.132l235.905-128.678-42.641 255.844c-1.362 8.171 1.304 16.496 7.164 22.353l169.958 169.958-258.636 43.106c-8.096 1.348-15.057 6.489-18.726 13.83l-105.308 210.616-105.308-210.616c-3.672-7.34-10.63-12.482-18.726-13.83l-258.636-43.106 169.956-169.958c5.858-5.857 8.525-14.183 7.164-22.353l-42.641-255.844 235.906 128.678c3.829 2.089 8.056 3.132 12.283 3.132z" />
<glyph unicode="&#xe815;" glyph-name="star-half" data-tags="star-half, rating" d="M795.151-25.913c-4.213 0-8.438 1.036-12.28 3.132l-153.895 83.942c-12.437 6.782-17.020 22.364-10.238 34.799 6.784 12.438 22.366 17.026 34.801 10.236l107.652-58.717-8.44 50.64c-2.329 13.975 7.112 27.19 21.084 29.519 13.969 2.334 27.19-7.11 29.519-21.084l17.101-102.6c1.615-9.679-2.438-19.432-10.433-25.12-4.426-3.15-9.637-4.749-14.868-4.749zM760.919 179.283c-12.314 0-23.18 8.893-25.271 21.439l-17.1 102.6c-1.362 8.171 1.304 16.496 7.164 22.353l51.3 51.3c10.017 10.017 26.258 10.017 36.273 0 10.018-10.017 10.018-26.258 0-36.273l-41.967-41.967 14.929-89.58c2.329-13.974-7.112-27.19-21.085-29.517-1.424-0.237-2.844-0.35-4.246-0.352zM897.753 435.788c-6.564 0-13.128 2.503-18.137 7.513-10.018 10.017-10.018 26.258 0 36.273l16.056 16.058-104.734 17.456c-13.975 2.329-23.414 15.544-21.085 29.519s15.563 23.414 29.517 21.085l153.9-25.65c9.477-1.58 17.277-8.323 20.21-17.472s0.504-19.171-6.289-25.964l-51.3-51.3c-5.010-5.013-11.572-7.516-18.138-7.516zM692.584 529.836c-1.4 0-2.82 0.115-4.246 0.352l-51.3 8.549c-8.096 1.348-15.057 6.489-18.726 13.829l-51.3 102.595c-6.335 12.67-1.2 28.078 11.47 34.414 12.667 6.335 28.078 1.199 34.414-11.47l45.458-90.914 38.416-6.402c13.975-2.329 23.414-15.544 21.085-29.519-2.089-12.542-12.959-21.434-25.269-21.434zM230.852-25.913c-5.231 0-10.441 1.599-14.872 4.749-7.997 5.689-12.046 15.44-10.433 25.119l49.13 294.782-195.864 195.867c-6.795 6.795-9.221 16.814-6.289 25.964s10.73 15.894 20.21 17.472l294.917 49.154 122.409 244.817c4.344 8.69 13.228 14.18 22.942 14.18 0 0 0 0 0 0 9.716 0 18.598-5.488 22.942-14.18l25.65-51.3c6.334-12.67 1.197-28.078-11.472-34.414s-28.078-1.2-34.415 11.472l-2.707 5.413-105.307-210.614c-3.672-7.34-10.63-12.482-18.726-13.83l-258.638-43.106 169.958-169.958c5.858-5.857 8.525-14.183 7.163-22.353l-42.641-255.844 235.906 128.678c7.656 4.178 16.908 4.174 24.566 0l25.653-13.994c12.435-6.784 17.018-22.364 10.234-34.801-6.784-12.435-22.362-17.018-34.801-10.234l-13.37 7.292-269.868-147.2c-3.843-2.097-8.069-3.132-12.282-3.132z" />
<glyph unicode="&#xe816;" glyph-name="star-empty" data-tags="star-empty, rating" d="M282.121 521.286c-12.314 0-23.18 8.892-25.271 21.437-2.329 13.974 7.112 27.19 21.085 29.519l89.717 14.953 19.808 39.617c6.335 12.67 21.743 17.807 34.414 11.472s17.805-21.743 11.472-34.414l-25.65-51.3c-3.672-7.34-10.63-12.482-18.726-13.83l-102.6-17.101c-1.426-0.237-2.848-0.352-4.246-0.352zM128.25 435.788c-6.564 0-13.128 2.503-18.137 7.513l-51.3 51.3c-6.795 6.795-9.221 16.814-6.289 25.964s10.73 15.894 20.21 17.472l102.6 17.101c13.985 2.33 27.19-7.113 29.519-21.085 2.329-13.974-7.112-27.19-21.085-29.519l-53.435-8.908 16.056-16.058c10.018-10.017 10.018-26.258 0-36.273-5.010-5.007-11.572-7.51-18.138-7.51zM760.919 179.283c-12.314 0-23.18 8.893-25.271 21.439l-17.1 102.6c-1.362 8.171 1.304 16.496 7.164 22.353l51.3 51.3c10.017 10.017 26.258 10.017 36.273 0 10.018-10.017 10.018-26.258 0-36.273l-41.967-41.967 14.929-89.58c2.329-13.974-7.112-27.19-21.085-29.517-1.424-0.237-2.844-0.352-4.246-0.352zM795.151-25.913c-4.213 0-8.438 1.036-12.28 3.132l-153.906 83.948c-12.437 6.782-17.020 22.364-10.236 34.799 6.78 12.438 22.364 17.024 34.799 10.236l107.663-58.724-8.44 50.64c-2.329 13.975 7.112 27.19 21.084 29.519 13.983 2.326 27.19-7.11 29.519-21.084l17.101-102.6c1.614-9.679-2.438-19.432-10.433-25.12-4.426-3.15-9.637-4.749-14.868-4.749zM273.632 230.583c-1.4 0-2.82 0.115-4.246 0.354-13.974 2.329-23.412 15.544-21.085 29.519l6.38 38.279-41.967 41.967c-10.018 10.017-10.018 26.258 0 36.273s26.258 10.017 36.273 0l51.3-51.3c5.858-5.857 8.525-14.183 7.164-22.354l-8.549-51.3c-2.092-12.546-12.96-21.439-25.272-21.439zM230.852-25.913c-5.231 0-10.441 1.599-14.872 4.749-7.997 5.689-12.046 15.44-10.433 25.119l25.65 153.898c2.329 13.975 15.544 23.414 29.519 21.085 13.974-2.327 23.412-15.544 21.085-29.517l-16.991-101.941 56.356 30.74c12.434 6.785 28.017 2.201 34.801-10.234 6.784-12.437 2.201-28.017-10.236-34.801l-102.6-55.964c-3.842-2.097-8.067-3.132-12.28-3.132zM436.073 86.009c-9.085 0-17.884 4.837-22.542 13.373-6.784 12.435-2.201 28.017 10.236 34.799l76.95 41.973c7.654 4.176 16.908 4.176 24.565 0l25.645-13.99c12.437-6.782 17.020-22.364 10.236-34.799-6.78-12.438-22.364-17.024-34.799-10.236l-13.364 7.288-64.667-35.271c-3.901-2.127-8.11-3.137-12.261-3.137zM897.753 435.788c-6.564 0-13.128 2.503-18.137 7.513-10.018 10.017-10.018 26.258 0 36.273l16.056 16.058-104.734 17.456c-13.975 2.329-23.414 15.544-21.085 29.519s15.563 23.414 29.517 21.085l153.9-25.65c9.477-1.58 17.277-8.323 20.21-17.472s0.504-19.171-6.289-25.964l-51.3-51.3c-5.010-5.013-11.572-7.516-18.138-7.516zM692.586 529.834c-1.4 0-2.822 0.115-4.248 0.352l-51.302 8.549c-8.094 1.348-15.056 6.489-18.724 13.829l-51.3 102.595c-6.335 12.67-1.2 28.078 11.47 34.414 12.667 6.335 28.078 1.199 34.414-11.47l45.458-90.914 38.419-6.402c13.974-2.329 23.412-15.544 21.084-29.519-2.090-12.542-12.959-21.434-25.269-21.434zM461.68 692.285c-3.854 0-7.77 0.872-11.451 2.713-12.67 6.335-17.805 21.743-11.472 34.414l51.3 102.6c4.346 8.69 13.229 14.18 22.943 14.18 0 0 0 0 0 0 9.716 0 18.598-5.488 22.942-14.18l25.648-51.3c6.335-12.67 1.199-28.078-11.47-34.414-12.67-6.337-28.078-1.2-34.414 11.472l-2.708 5.413-28.357-56.713c-4.494-8.989-13.556-14.185-22.964-14.185z" />
<glyph unicode="&#xe817;" glyph-name="flag" data-tags="flag, report, mark" d="M76.95-25.913c-14.166 0-25.65 11.483-25.65 25.65v769.502c0 14.166 11.484 25.65 25.65 25.65s25.65-11.484 25.65-25.65v-769.502c0-14.167-11.484-25.65-25.65-25.65zM179.531 435.786c-5.356 0-10.755 1.671-15.371 5.132-11.332 8.499-13.629 24.578-5.13 35.908 3.456 4.609 85.957 112.86 200.070 112.86 86.885 0 144.32-30.726 194.994-57.834 44.901-24.019 83.679-44.765 138.456-44.765 112.466 0 192.765 106.698 238.559 190.716-35.806-20.357-81.571-36.816-135.959-36.816-113.226 0-171.725 58.5-223.337 110.114-51.025 51.022-95.088 95.087-187.065 95.087-114.105 0-183.989-91.416-184.68-92.34-8.499-11.332-24.578-13.629-35.91-5.13s-13.629 24.578-5.13 35.91c3.456 4.609 86.248 112.86 225.72 112.86 113.224 0 171.725-58.5 223.337-110.114 51.025-51.022 95.090-95.087 187.065-95.087 114.105 0 183.989 91.416 184.68 92.34 7.548 10.063 21.28 13.167 32.426 7.329 11.144-5.839 16.406-18.897 12.429-30.831-1.092-3.275-27.342-81.116-79.942-160.016-31.403-47.103-65.766-84.82-102.141-112.098-47.089-35.316-97.574-53.224-150.053-53.224-67.636 0-115.941 25.84-162.656 50.833-49.767 26.622-96.771 51.769-170.796 51.769-88.75 0-158.338-91.416-159.030-92.34-5.039-6.72-12.741-10.262-20.539-10.262z" />
<glyph unicode="&#xe818;" glyph-name="envelope" data-tags="envelope, mail, letter, email" d="M897.753 640.988h-820.803c-42.429 0-76.95-34.521-76.95-76.95v-461.701c0-42.431 34.521-76.95 76.95-76.95h820.803c42.431 0 76.95 34.519 76.95 76.95v461.701c0 42.429-34.519 76.95-76.95 76.95zM897.753 589.688c1.516 0 2.996-0.158 4.442-0.411l-386.386-257.593c-14.892-9.927-42.020-9.927-56.914 0l-386.388 257.593c1.445 0.253 2.926 0.411 4.442 0.411h820.803zM897.753 76.687h-820.803c-14.143 0-25.65 11.507-25.65 25.65v439.424l379.14-252.761c15.957-10.638 36.435-15.957 56.912-15.957s40.957 5.317 56.914 15.957l379.138 252.761v-439.424c0-14.143-11.507-25.65-25.65-25.65z" />
<glyph unicode="&#xe819;" glyph-name="paperclip" data-tags="paperclip, attachment" d="M487.351-77.213c-127.291 0-230.85 103.559-230.85 230.85v615.602c0 99.005 80.547 179.55 179.55 179.55s179.55-80.547 179.55-179.55v-564.302c0-70.717-57.533-128.25-128.25-128.25s-128.25 57.533-128.25 128.25v307.801c0 14.166 11.484 25.65 25.65 25.65s25.65-11.484 25.65-25.65v-307.801c0-42.431 34.521-76.95 76.95-76.95 42.431 0 76.95 34.519 76.95 76.95v564.302c0 70.717-57.533 128.25-128.25 128.25s-128.25-57.533-128.25-128.25v-615.602c0-99.005 80.547-179.55 179.55-179.55s179.55 80.547 179.55 179.55v359.101c0 14.166 11.483 25.65 25.65 25.65s25.65-11.484 25.65-25.65v-359.101c0-127.291-103.559-230.85-230.85-230.85z" />
<glyph unicode="&#xe81a;" glyph-name="inbox" data-tags="inbox, drawer" d="M1003.29 416.118l-138.427 316.404c-15.302 34.974-57.187 62.368-95.36 62.368h-513.001c-38.173 0-80.060-27.395-95.362-62.368l-138.427-316.404c-12.734-29.112-22.711-76.808-22.711-108.58v-205.2c0-42.431 34.521-76.95 76.95-76.95h872.103c42.431 0 76.95 34.519 76.95 76.95v205.2c0 31.776-9.978 79.47-22.713 108.58zM208.139 711.96c7.241 16.554 30.294 31.63 48.361 31.63h513.001c18.070 0 41.118-15.076 48.363-31.63l138.427-316.404c1.561-3.564 3.088-7.604 4.555-11.974-3.848 0.597-7.786 0.906-11.797 0.906h-307.801c-14.167 0-25.65-11.483-25.65-25.65v-25.65c0-56.574-46.026-102.6-102.6-102.6s-102.6 46.026-102.6 102.6v25.65c0 14.167-11.484 25.65-25.65 25.65h-307.801c-4.010 0-7.949-0.309-11.795-0.904 1.468 4.368 2.998 8.408 4.555 11.974l138.427 316.402zM974.703 102.337c0-14.143-11.507-25.65-25.65-25.65h-872.103c-14.143 0-25.65 11.507-25.65 25.65v205.2c0 14.143 11.507 25.65 25.65 25.65h282.151c0-84.862 69.038-153.9 153.9-153.9s153.9 69.038 153.9 153.9h282.151c14.143 0 25.65-11.507 25.65-25.65v-205.2z" />
<glyph unicode="&#xe81b;" glyph-name="eye" data-tags="eye, vision, view" d="M1019.42 427.298c-2.433 2.704-60.633 66.956-151.645 131.964-53.691 38.351-107.709 68.96-160.548 90.978-66.967 27.902-132.314 42.050-194.225 42.050s-127.258-14.148-194.225-42.052c-52.84-22.015-106.854-52.625-160.548-90.978-91.010-65.004-149.212-129.258-151.645-131.962-8.781-9.756-8.781-24.563 0-34.318 2.433-2.705 60.635-66.957 151.645-131.965 53.691-38.351 107.708-68.961 160.548-90.978 66.967-27.902 132.314-42.050 194.225-42.050s127.258 14.148 194.225 42.050c52.838 22.015 106.853 52.625 160.548 90.978 91.012 65.006 149.212 129.26 151.645 131.964 8.78 9.756 8.78 24.565 0 34.32zM645.048 618.503c46.548-39.15 73.153-96.111 73.153-157.063 0-113.146-92.054-205.2-205.2-205.2-113.148 0-205.2 92.054-205.2 205.2 0 60.954 26.606 117.915 73.156 157.063 42.189 13.77 86.772 22.487 132.044 22.487 45.274 0 89.858-8.717 132.047-22.487zM837.052 302.115c-78.642-56.035-198.697-122.827-324.050-122.827s-245.409 66.792-324.048 122.827c-59.356 42.292-104.778 85.056-127.708 108.023 22.932 22.972 68.356 65.734 127.708 108.023 27.184 19.369 59.316 40.020 94.906 58.757-17.8-35.292-27.358-74.666-27.358-115.482 0-141.436 115.066-256.5 256.5-256.5 141.436 0 256.5 115.064 256.5 256.5 0 40.814-9.556 80.188-27.355 115.482 35.587-18.737 67.721-39.388 94.904-58.757 59.354-42.292 104.777-85.056 127.706-108.023-22.932-22.972-68.356-65.734-127.706-108.023z" />
<glyph unicode="&#xe81c;" glyph-name="printer" data-tags="printer, print" d="M949.053 743.59h-76.95v128.25c0 42.429-34.521 76.95-76.95 76.95h-564.302c-42.429 0-76.95-34.521-76.95-76.95v-128.25h-76.95c-42.429 0-76.95-34.521-76.95-76.95v-461.701c0-42.431 34.521-76.95 76.95-76.95h76.95v-128.25c0-42.429 34.521-76.95 76.95-76.95h564.302c42.429 0 76.95 34.521 76.95 76.95v128.25h76.95c42.431 0 76.95 34.519 76.95 76.95v461.701c0 42.429-34.519 76.95-76.95 76.95zM205.2 871.84c0 14.143 11.507 25.65 25.65 25.65h564.302c14.143 0 25.65-11.507 25.65-25.65v-128.25h-615.602v128.25zM795.153-25.913h-564.302c-14.143 0-25.65 11.507-25.65 25.65v333.451h615.602v-333.451c0-14.143-11.507-25.65-25.65-25.65zM974.703 204.938c0-14.143-11.507-25.65-25.65-25.65h-76.95v153.9h25.65c14.167 0 25.65 11.483 25.65 25.65s-11.483 25.65-25.65 25.65h-769.502c-14.166 0-25.65-11.483-25.65-25.65s11.484-25.65 25.65-25.65h25.65v-153.9h-76.95c-14.143 0-25.65 11.507-25.65 25.65v461.701c0 14.143 11.507 25.65 25.65 25.65h872.103c14.143 0 25.65-11.507 25.65-25.65v-461.701zM743.852 230.588h-461.701c-14.166 0-25.65 11.483-25.65 25.65s11.484 25.65 25.65 25.65h461.701c14.167 0 25.65-11.483 25.65-25.65s-11.483-25.65-25.65-25.65zM743.852 127.987h-461.701c-14.166 0-25.65 11.483-25.65 25.65s11.484 25.65 25.65 25.65h461.701c14.167 0 25.65-11.483 25.65-25.65s-11.483-25.65-25.65-25.65zM743.852 25.387h-461.701c-14.166 0-25.65 11.483-25.65 25.65s11.484 25.65 25.65 25.65h461.701c14.167 0 25.65-11.483 25.65-25.65s-11.483-25.65-25.65-25.65zM846.453 487.088c-42.431 0-76.95 34.521-76.95 76.95s34.519 76.95 76.95 76.95 76.95-34.521 76.95-76.95-34.519-76.95-76.95-76.95zM846.453 589.688c-14.143 0-25.65-11.507-25.65-25.65s11.507-25.65 25.65-25.65 25.65 11.507 25.65 25.65-11.507 25.65-25.65 25.65z" />
<glyph unicode="&#xe81d;" glyph-name="file-empty" data-tags="file-empty, file, paper, new" d="M915.889 659.125l-230.85 230.85c-4.81 4.812-11.334 7.513-18.137 7.513h-487.351c-42.429 0-76.95-34.521-76.95-76.95v-820.803c0-42.431 34.521-76.95 76.95-76.95h666.902c42.431 0 76.95 34.519 76.95 76.95v641.252c0 6.804-2.704 13.327-7.513 18.137zM861.478 640.988h-168.927c-14.143 0-25.65 11.507-25.65 25.65v168.927l194.577-194.577zM872.103-0.263c0-14.143-11.507-25.65-25.65-25.65h-666.902c-14.143 0-25.65 11.507-25.65 25.65v820.803c0 14.143 11.507 25.65 25.65 25.65h436.051v-179.55c0-42.429 34.519-76.95 76.95-76.95h179.55v-589.952z" />
<glyph unicode="&#xe81e;" glyph-name="file-add" data-tags="file-add, file" d="M915.889 659.125l-230.85 230.85c-4.81 4.812-11.334 7.513-18.137 7.513h-487.351c-42.429 0-76.95-34.521-76.95-76.95v-820.803c0-42.431 34.521-76.95 76.95-76.95h666.902c42.431 0 76.95 34.519 76.95 76.95v641.252c0 6.804-2.704 13.327-7.513 18.137zM861.478 640.988h-168.927c-14.143 0-25.65 11.507-25.65 25.65v168.927l194.577-194.577zM846.453-25.913h-666.902c-14.143 0-25.65 11.507-25.65 25.65v820.803c0 14.143 11.507 25.65 25.65 25.65h436.051v-179.55c0-42.429 34.519-76.95 76.95-76.95h179.55v-589.952c0-14.143-11.507-25.65-25.65-25.65zM589.952 281.888h-128.25v128.25c0 14.167-11.484 25.65-25.65 25.65s-25.65-11.483-25.65-25.65v-128.25h-128.25c-14.166 0-25.65-11.483-25.65-25.65s11.484-25.65 25.65-25.65h128.25v-128.25c0-14.167 11.484-25.65 25.65-25.65s25.65 11.483 25.65 25.65v128.25h128.25c14.167 0 25.65 11.483 25.65 25.65s-11.483 25.65-25.65 25.65z" />
<glyph unicode="&#xe81f;" glyph-name="enter" data-tags="enter, door, sign-in, log-in, login" d="M897.753 846.19h-461.701c-42.429 0-76.95-34.521-76.95-76.95v-153.9c0-14.166 11.484-25.65 25.65-25.65s25.65 11.484 25.65 25.65v153.9c0 14.143 11.507 25.65 25.65 25.65h388.036l-197.086-84.465c-35.156-15.068-62.698-56.834-62.698-95.085v-487.351h-128.25c-14.143 0-25.65 11.507-25.65 25.65v153.9c0 14.167-11.484 25.65-25.65 25.65s-25.65-11.483-25.65-25.65v-153.9c0-42.429 34.521-76.95 76.95-76.95h128.25v-76.95c0-22.225 9.252-41.070 25.381-51.706 8.904-5.873 19.281-8.832 30.23-8.832 8.885 0 18.145 1.95 27.296 5.871l264.794 113.483c35.159 15.068 62.701 56.834 62.701 95.087v615.602c0 42.429-34.519 76.95-76.95 76.95zM923.403 153.638c0-17.999-15.065-40.845-31.608-47.932l-264.794-113.483c-4.922-2.111-8.179-1.959-9.080-1.365-0.896 0.592-2.319 3.524-2.319 8.88v615.602c0 17.998 15.065 40.843 31.608 47.932l273.577 117.247c1.676-3.406 2.617-7.235 2.617-11.28v-615.602zM428.537 479.575l-153.9 153.9c-10.017 10.018-26.258 10.018-36.273 0s-10.018-26.258 0-36.273l110.114-110.113h-322.827c-14.166 0-25.65-11.484-25.65-25.65s11.484-25.65 25.65-25.65h322.827l-110.113-110.114c-10.018-10.017-10.018-26.258 0-36.273 5.008-5.008 11.571-7.512 18.137-7.512s13.128 2.503 18.137 7.513l153.9 153.9c10.018 10.017 10.018 26.257 0 36.272z" />
<glyph unicode="&#xe820;" glyph-name="exit" data-tags="exit, door, sign-out, log-out, logout" d="M589.952 538.388c14.167 0 25.65 11.484 25.65 25.65v205.2c0 42.429-34.519 76.95-76.95 76.95h-461.701c-42.429 0-76.95-34.521-76.95-76.95v-615.602c0-38.252 27.542-80.018 62.698-95.085l264.795-113.484c9.152-3.923 18.409-5.871 27.294-5.871 10.948 0.002 21.33 2.961 30.232 8.832 16.131 10.636 25.383 29.484 25.383 51.706v76.95h128.25c42.431 0 76.95 34.519 76.95 76.95v205.2c0 14.167-11.483 25.65-25.65 25.65s-25.65-11.483-25.65-25.65v-205.2c0-14.143-11.507-25.65-25.65-25.65h-128.25v487.351c0 38.25-27.542 80.017-62.698 95.085l-197.086 84.465h388.036c14.143 0 25.65-11.507 25.65-25.65v-205.2c0-14.166 11.483-25.65 25.65-25.65zM327.494 663.27c16.542-7.089 31.608-29.935 31.608-47.932v-615.602c0-5.354-1.423-8.288-2.321-8.88-0.9-0.591-4.158-0.744-9.079 1.364l-264.795 113.484c-16.541 7.088-31.606 29.933-31.606 47.932v615.602c0 4.045 0.941 7.875 2.617 11.28l273.577-117.247zM941.539 479.575l-153.9 153.9c-10.017 10.018-26.258 10.018-36.273 0-10.018-10.017-10.018-26.258 0-36.273l110.114-110.113h-322.827c-14.167 0-25.65-11.484-25.65-25.65s11.483-25.65 25.65-25.65h322.827l-110.114-110.114c-10.018-10.017-10.018-26.258 0-36.273 5.010-5.008 11.572-7.512 18.138-7.512s13.128 2.503 18.137 7.513l153.9 153.9c10.018 10.017 10.018 26.257 0 36.272z" />
<glyph unicode="&#xe821;" glyph-name="graduation-hat" data-tags="graduation-hat, education, university, college, school" d="M957.165 588.372l-461.701 153.9c-5.264 1.756-10.958 1.756-16.222 0l-461.701-153.9c-10.474-3.491-17.54-13.293-17.54-24.334s7.065-20.842 17.538-24.334l136.362-45.453v-135.413c0-6.803 2.704-13.327 7.513-18.137 4.494-4.496 112.566-110.114 325.937-110.114 77.606 0 150.004 13.969 215.186 41.516 13.050 5.514 19.156 20.563 13.642 33.613s-20.565 19.155-33.613 13.642c-58.828-24.864-124.509-37.471-195.216-37.471-99.78 0-173.178 25.831-217.182 47.502-32.594 16.051-54.365 32.266-64.968 41.006v106.755l274.039-91.346c2.633-0.879 5.372-1.316 8.112-1.316s5.477 0.437 8.112 1.316l274.039 91.346v-45.776c-29.855-10.588-51.3-39.1-51.3-72.539 0-31.331 18.828-58.327 45.756-70.319l-44.989-179.962c-1.914-7.662-0.194-15.78 4.668-22.007s12.318-9.865 20.218-9.865h102.6c7.899 0 15.356 3.64 20.218 9.865s6.58 14.343 4.668 22.007l-44.989 179.962c26.926 11.992 45.756 38.988 45.756 70.319 0 33.439-21.445 61.949-51.3 72.539v62.874l136.362 45.454c10.473 3.489 17.538 13.292 17.538 24.333s-7.065 20.842-17.538 24.334zM795.153 384.488c14.143 0 25.65-11.507 25.65-25.65s-11.507-25.65-25.65-25.65-25.65 11.507-25.65 25.65 11.507 25.65 25.65 25.65zM776.703 127.987l18.449 73.792 18.449-73.792h-36.898zM793.084 539.088l-301.516 50.253c-13.98 2.326-27.19-7.113-29.519-21.084-2.329-13.975 7.112-27.192 21.085-29.519l205.935-34.323-201.717-67.242-380.589 126.864 380.589 126.864 380.588-126.864-74.855-24.95z" />
<glyph unicode="&#xe822;" glyph-name="license" data-tags="license, certificate" d="M949.053 25.387h-872.103c-42.429 0-76.95 34.519-76.95 76.95v666.902c0 42.429 34.521 76.95 76.95 76.95h872.103c42.431 0 76.95-34.521 76.95-76.95v-666.902c0-42.431-34.519-76.95-76.95-76.95zM76.95 794.89c-14.143 0-25.65-11.507-25.65-25.65v-666.902c0-14.143 11.507-25.65 25.65-25.65h872.103c14.143 0 25.65 11.507 25.65 25.65v666.902c0 14.143-11.507 25.65-25.65 25.65h-872.103zM487.351 640.988h-307.801c-14.166 0-25.65 11.484-25.65 25.65s11.484 25.65 25.65 25.65h307.801c14.166 0 25.65-11.484 25.65-25.65s-11.484-25.65-25.65-25.65zM487.351 487.088h-307.801c-14.166 0-25.65 11.483-25.65 25.65s11.484 25.65 25.65 25.65h307.801c14.166 0 25.65-11.483 25.65-25.65s-11.484-25.65-25.65-25.65zM487.351 384.488h-307.801c-14.166 0-25.65 11.483-25.65 25.65s11.484 25.65 25.65 25.65h307.801c14.166 0 25.65-11.483 25.65-25.65s-11.484-25.65-25.65-25.65zM487.351 281.888h-307.801c-14.166 0-25.65 11.483-25.65 25.65s11.484 25.65 25.65 25.65h307.801c14.166 0 25.65-11.483 25.65-25.65s-11.484-25.65-25.65-25.65zM436.051 179.288h-256.5c-14.166 0-25.65 11.483-25.65 25.65s11.484 25.65 25.65 25.65h256.5c14.166 0 25.65-11.483 25.65-25.65s-11.484-25.65-25.65-25.65zM920.474 613.091l-41.728 30.318-15.941 49.053h-51.575l-41.728 30.318-41.727-30.318h-51.575l-15.941-49.053-41.728-30.318 15.941-49.053-15.941-49.053 41.728-30.319 6.766-20.814c-0.077-0.796-0.123-1.601-0.123-2.414v-256.5c0-10.375 6.249-19.728 15.833-23.697 9.586-3.973 20.618-1.774 27.953 5.56l58.812 58.812 58.813-58.813c4.908-4.909 11.465-7.515 18.143-7.513 3.304 0 6.636 0.639 9.81 1.953 9.584 3.971 15.833 13.324 15.833 23.699v256.5c0 0.815-0.046 1.62-0.122 2.414l6.766 20.814 41.728 30.319-15.942 49.053 15.942 49.053zM678.839 593.496l25.058 18.206 9.572 29.458h30.972l25.059 18.209 25.059-18.207h30.972l9.572-29.458 25.058-18.206-9.572-29.46 9.572-29.458-25.058-18.207-9.572-29.458h-30.972l-25.059-18.209-25.059 18.207h-30.972l-9.572 29.458-25.058 18.207 9.572 29.46-9.572 29.458zM787.638 300.024c-10.017 10.017-26.258 10.017-36.273 0l-33.162-33.162v168.756h9.573l41.727-30.318 41.727 30.316h9.573v-168.756l-33.163 33.163z" />
<glyph unicode="&#xe823;" glyph-name="music-note" data-tags="music-note, music, song, audio" d="M1016.788 891.532c-5.838 4.874-13.535 6.905-21.024 5.543l-564.302-102.6c-12.197-2.217-21.063-12.842-21.063-25.237v-584.774c-7 4.732-14.657 9.199-22.98 13.362-42.248 21.127-97.853 32.76-156.57 32.76s-114.322-11.633-156.57-32.76c-47.9-23.948-74.281-57.862-74.281-95.49s26.382-71.542 74.281-95.49c42.248-21.127 97.853-32.76 156.57-32.76s114.322 11.633 156.57 32.76c47.9 23.948 74.281 57.862 74.281 95.49v517.304l513.001 94.734v-427.309c-6.998 4.732-14.657 9.2-22.98 13.362-42.248 21.127-97.853 32.76-156.57 32.76s-114.322-11.633-156.57-32.76c-47.902-23.948-74.281-57.862-74.281-95.49s26.38-71.542 74.281-95.49c42.248-21.127 97.853-32.76 156.57-32.76s114.322 11.633 156.57 32.76c47.902 23.948 74.281 57.862 74.281 95.49v666.902c0 7.604-3.374 14.818-9.215 19.692zM230.85 25.387c-102.763 0-179.55 40.627-179.55 76.95s76.787 76.95 179.55 76.95 179.55-40.627 179.55-76.95-76.787-76.95-179.55-76.95zM461.701 671.812v76.022l513.001 93.273v-74.562l-513.001-94.734zM795.153 127.987c-102.765 0-179.55 40.627-179.55 76.95s76.785 76.95 179.55 76.95c102.766 0 179.55-40.627 179.55-76.95s-76.784-76.95-179.55-76.95z" />
<glyph unicode="&#xe824;" glyph-name="film-play" data-tags="film-play, video, movie" d="M384.748 179.288c-3.91 0-7.838 0.893-11.467 2.708-8.69 4.344-14.18 13.226-14.18 22.942v461.701c0 9.716 5.488 18.598 14.18 22.942 8.686 4.342 19.089 3.406 26.86-2.422l307.801-230.85c6.458-4.844 10.26-12.446 10.26-20.52s-3.802-15.675-10.26-20.52l-307.801-230.85c-4.525-3.393-9.943-5.13-15.393-5.13zM410.401 615.338v-359.101l239.401 179.55-239.401 179.55zM1000.353 846.19h-974.703c-14.166 0-25.65-11.484-25.65-25.65v-769.502c0-14.167 11.484-25.65 25.65-25.65h974.703c14.167 0 25.65 11.483 25.65 25.65v769.502c0 14.166-11.483 25.65-25.65 25.65zM153.9 384.488h-102.6v102.6h102.6v-102.6zM153.9 538.388h-102.6v102.6h102.6v-102.6zM51.3 333.188h102.6v-102.6h-102.6v102.6zM205.2 794.89h615.602v-718.202h-615.602v718.202zM872.103 487.088h102.6v-102.6h-102.6v102.6zM872.103 538.388v102.6h102.6v-102.6h-102.6zM872.103 333.188h102.6v-102.6h-102.6v102.6zM974.703 692.29h-102.6v102.6h102.6v-102.6zM153.9 794.89v-102.6h-102.6v102.6h102.6zM51.3 179.288h102.6v-102.6h-102.6v102.6zM872.103 76.687v102.6h102.6v-102.6h-102.6z" />
<glyph unicode="&#xe825;" glyph-name="camera-video" data-tags="camera-video, video" d="M981.411 73.951c-0.003 0-0.005 0-0.008 0-12.402 0.002-24.894 4.967-37.131 14.753l-176.382 141.108c-28.328 22.657-49.687 67.101-49.687 103.376v153.9c0 36.273 21.36 80.718 49.686 103.376l176.381 141.106c12.24 9.793 24.734 14.754 37.138 14.754 22.199 0.002 44.597-16.707 44.597-54.037v-564.302c0-14.262-3.281-26.249-9.753-35.628-8.072-11.697-20.77-18.409-34.839-18.409zM974.703 690.222l-174.769-139.815c-15.928-12.741-30.433-42.921-30.433-63.318v-153.9c0-20.398 14.505-50.576 30.431-63.318l174.771-139.815v560.166zM589.952 76.687h-513.001c-42.429 0-76.95 34.521-76.95 76.95v513.001c0 42.429 34.521 76.95 76.95 76.95h513.001c42.429 0 76.95-34.521 76.95-76.95v-513.001c0-42.429-34.521-76.95-76.95-76.95zM76.95 692.29c-14.143 0-25.65-11.507-25.65-25.65v-513.001c0-14.143 11.507-25.65 25.65-25.65h513.001c14.143 0 25.65 11.507 25.65 25.65v513.001c0 14.143-11.507 25.65-25.65 25.65h-513.001z" />
<glyph unicode="&#xe826;" glyph-name="camera" data-tags="camera, photo" d="M487.351 179.288c-127.291 0-230.85 103.559-230.85 230.85s103.559 230.85 230.85 230.85c127.291 0 230.85-103.559 230.85-230.85s-103.559-230.85-230.85-230.85zM487.351 589.688c-99.005 0-179.55-80.547-179.55-179.55s80.547-179.55 179.55-179.55 179.55 80.547 179.55 179.55-80.547 179.55-179.55 179.55zM897.753 25.387h-820.803c-42.429 0-76.95 34.519-76.95 76.95v513.001c0 42.429 34.521 76.95 76.95 76.95h76.95c21.288 0 54.384 13.708 69.438 28.762l30.050 30.050c24.962 24.963 70.41 43.788 105.712 43.788h256.5c35.303 0 80.752-18.825 105.712-43.788l30.050-30.048c15.054-15.056 48.15-28.763 69.438-28.763h76.95c42.431 0 76.95-34.521 76.95-76.95v-513.001c0-42.431-34.519-76.95-76.95-76.95zM76.95 640.988c-14.143 0-25.65-11.507-25.65-25.65v-513.001c0-14.143 11.507-25.65 25.65-25.65h820.803c14.143 0 25.65 11.507 25.65 25.65v513.001c0 14.143-11.507 25.65-25.65 25.65h-76.95c-35.303 0-80.752 18.825-105.712 43.788l-30.050 30.048c-15.054 15.056-48.15 28.763-69.438 28.763h-256.5c-21.288 0-54.384-13.708-69.438-28.762l-30.050-30.050c-24.962-24.963-70.41-43.788-105.712-43.788h-76.95z" />
<glyph unicode="&#xe827;" glyph-name="picture" data-tags="picture, photo, polaroid" d="M949.053-77.213h-872.103c-42.429 0-76.95 34.519-76.95 76.95v872.103c0 42.429 34.521 76.95 76.95 76.95h872.103c42.431 0 76.95-34.521 76.95-76.95v-872.103c0-42.431-34.519-76.95-76.95-76.95zM76.95 897.49c-14.143 0-25.65-11.507-25.65-25.65v-872.103c0-14.143 11.507-25.65 25.65-25.65h872.103c14.143 0 25.65 11.507 25.65 25.65v872.103c0 14.143-11.507 25.65-25.65 25.65h-872.103zM666.902 487.088c-56.574 0-102.6 46.026-102.6 102.6s46.026 102.6 102.6 102.6 102.6-46.026 102.6-102.6-46.026-102.6-102.6-102.6zM666.902 640.988c-28.288 0-51.3-23.012-51.3-51.3s23.012-51.3 51.3-51.3 51.3 23.012 51.3 51.3-23.012 51.3-51.3 51.3zM897.753 846.19h-769.502c-14.166 0-25.65-11.484-25.65-25.65v-615.602c0-14.167 11.484-25.65 25.65-25.65h769.502c14.167 0 25.65 11.483 25.65 25.65v615.602c0 14.166-11.483 25.65-25.65 25.65zM153.9 349.086l164.64 185.22c4.211 4.738 9.712 7.385 15.492 7.454 5.737 0.090 11.344-2.442 15.668-7.076l283.824-304.096h-479.626v118.499zM872.103 230.588h-168.403l-316.493 339.099c-14.297 15.318-33.378 23.651-53.796 23.371-20.394-0.246-39.29-9.010-53.211-24.669l-126.297-142.086v368.587h718.202v-564.302z" />
<glyph unicode="&#xe828;" glyph-name="book" data-tags="book, read" d="M743.852 25.387h-513.001c-14.166 0-25.65 11.483-25.65 25.65s11.484 25.65 25.65 25.65h513.001c14.167 0 25.65-11.483 25.65-25.65s-11.483-25.65-25.65-25.65zM846.453 794.89c-14.167 0-25.65-11.484-25.65-25.65v-769.502c0-14.143-11.507-25.65-25.65-25.65h-564.302c-42.429 0-76.95 34.521-76.95 76.95s34.521 76.95 76.95 76.95h461.701c42.431 0 76.95 34.519 76.95 76.95v615.602c0 42.429-34.519 76.95-76.95 76.95h-513.001c-42.429 0-76.95-34.521-76.95-76.95v-769.502c0-70.717 57.533-128.25 128.25-128.25h564.302c42.431 0 76.95 34.519 76.95 76.95v769.502c0 14.166-11.483 25.65-25.65 25.65zM179.55 846.19h513.001c14.143 0 25.65-11.507 25.65-25.65v-615.602c0-14.143-11.507-25.65-25.65-25.65h-461.701c-28.85 0-55.5-9.581-76.95-25.72v666.972c0 14.143 11.507 25.65 25.65 25.65z" />
<glyph unicode="&#xe829;" glyph-name="bookmark" data-tags="bookmark, ribbon" d="M795.158-77.215c-7.345 0-14.51 3.161-19.48 8.959l-288.326 336.379-288.326-336.379c-6.985-8.147-18.305-11.089-28.374-7.363-10.068 3.723-16.75 13.324-16.75 24.056v923.403c0 14.166 11.484 25.65 25.65 25.65h615.602c14.167 0 25.65-11.484 25.65-25.65v-923.403c0-10.732-6.684-20.334-16.75-24.056-2.905-1.076-5.916-1.596-8.895-1.596zM487.351 333.188c7.488 0 14.601-3.272 19.475-8.957l262.676-306.456v828.414h-564.302v-828.414l262.676 306.456c4.874 5.686 11.987 8.957 19.475 8.957z" />
<glyph unicode="&#xe82a;" glyph-name="user" data-tags="user, persona, profile, avatar" d="M487.351 384.488c-155.579 0-282.151 126.572-282.151 282.151s126.572 282.151 282.151 282.151 282.151-126.572 282.151-282.151-126.572-282.151-282.151-282.151zM487.351 897.49c-127.291 0-230.85-103.559-230.85-230.85s103.559-230.85 230.85-230.85c127.29 0 230.85 103.559 230.85 230.85s-103.56 230.85-230.85 230.85zM897.753-77.213h-820.803c-42.429 0-76.95 34.519-76.95 76.95 0 3.491 0.714 86.453 62.842 169.29 36.164 48.22 85.682 86.529 147.171 113.856 75.103 33.38 168.413 50.304 277.339 50.304 108.922 0 202.232-16.927 277.339-50.304 61.49-27.329 111.005-65.635 147.171-113.856 62.13-82.837 62.842-165.799 62.842-169.29 0-42.431-34.519-76.95-76.95-76.95zM487.351 281.888c-178.87 0-310.874-48.885-381.745-141.369-53.115-69.31-54.301-140.178-54.306-140.885 0-14.041 11.507-25.548 25.65-25.548h820.803c14.143 0 25.65 11.507 25.65 25.65-0.006 0.605-1.191 71.473-54.304 140.781-70.872 92.484-202.879 141.369-381.747 141.369z" />
<glyph unicode="&#xe82b;" glyph-name="users" data-tags="users, group, team, people" d="M949.053 25.387h-564.302c-42.429 0-76.95 34.521-76.95 76.95 0 2.465 0.54 61.072 47.423 118.776 26.935 33.152 63.665 59.426 109.166 78.093 54.964 22.548 123.098 33.981 202.513 33.981s147.549-11.433 202.513-33.981c45.499-18.666 82.227-44.941 109.166-78.093 46.886-57.704 47.423-116.31 47.423-118.776 0-42.429-34.521-76.95-76.95-76.95zM359.101 102.206c0.072-14.084 11.55-25.519 25.65-25.519h564.302c14.1 0 25.578 11.435 25.65 25.519-0.048 1.79-1.66 45.892-37.925 88.96-49.978 59.351-143.299 90.724-269.876 90.724s-219.899-31.372-269.876-90.724c-36.264-43.068-37.877-87.17-37.925-88.96zM666.902 384.488c-113.146 0-205.2 92.054-205.2 205.2 0 113.148 92.054 205.2 205.2 205.2s205.2-92.052 205.2-205.2c0-113.146-92.054-205.2-205.2-205.2zM666.902 743.59c-84.862 0-153.9-69.038-153.9-153.9s69.038-153.9 153.9-153.9 153.9 69.038 153.9 153.9-69.038 153.9-153.9 153.9zM230.85 25.387h-153.9c-42.429 0-76.95 34.519-76.95 76.95 0 1.919 0.386 47.538 33.986 92.34 19.411 25.882 45.868 46.389 78.637 60.953 39.202 17.423 87.609 26.258 143.878 26.258 9.178 0 18.268-0.235 27.014-0.703 14.146-0.756 25.002-12.836 24.248-26.98s-12.806-25.008-26.98-24.248c-7.842 0.418-16.011 0.631-24.282 0.631-199.756 0-205.066-122.064-205.2-128.381 0.072-14.082 11.55-25.519 25.65-25.519h153.9c14.166 0 25.65-11.483 25.65-25.65s-11.484-25.65-25.65-25.65zM256.5 333.188c-84.862 0-153.9 69.038-153.9 153.9s69.038 153.9 153.9 153.9 153.9-69.038 153.9-153.9-69.038-153.9-153.9-153.9zM256.5 589.688c-56.574 0-102.6-46.026-102.6-102.6s46.026-102.6 102.6-102.6 102.6 46.026 102.6 102.6c0 56.574-46.026 102.6-102.6 102.6z" />
<glyph unicode="&#xe82c;" glyph-name="shirt" data-tags="shirt, clothing, tee, tshirt" d="M692.552-25.913h-410.401c-42.429 0-76.95 34.519-76.95 76.95v477.414l-120.138-40.046c-13.44-4.48-27.964 2.784-32.445 16.222l-51.3 153.9c-4.037 12.11 1.444 25.346 12.863 31.054l307.801 153.9c7.952 3.976 17.394 3.548 24.955-1.124s12.165-12.93 12.165-21.818c0-70.717 57.533-128.25 128.25-128.25s128.25 57.533 128.25 128.25c0 8.89 4.602 17.146 12.165 21.818 7.561 4.676 17.005 5.1 24.955 1.124l307.801-153.9c11.417-5.71 16.9-18.943 12.863-31.054l-51.3-153.9c-4.478-13.437-19.004-20.702-32.445-16.222l-120.138 40.046v-477.414c0-42.431-34.519-76.95-76.95-76.95zM230.848 589.688c5.317 0 10.575-1.654 15-4.842 6.689-4.821 10.652-12.563 10.652-20.808v-513.001c0-14.143 11.507-25.65 25.65-25.65h410.401c14.143 0 25.65 11.507 25.65 25.65v513.001c0 8.245 3.965 15.989 10.652 20.808 6.691 4.821 15.288 6.135 23.11 3.524l129.567-43.188 36.153 108.462-255.122 127.561c-17.982-80.151-89.714-140.218-175.211-140.218-85.499 0-157.232 60.067-175.211 140.218l-255.122-127.561 36.153-108.462 129.567 43.188c2.651 0.882 5.388 1.316 8.11 1.316z" />
<glyph unicode="&#xe82d;" glyph-name="store" data-tags="store, shop, market" d="M923.403 461.438v51.3c0 3.982-0.927 7.91-2.708 11.47l-102.6 205.2c-4.344 8.69-13.226 14.18-22.942 14.18h-615.602c-9.716 0-18.598-5.488-22.942-14.18l-102.6-205.2c-1.782-3.56-2.708-7.488-2.708-11.47v-51.3c0-41.868 20.171-79.109 51.3-102.53v-333.521h-25.65c-14.166 0-25.65-11.483-25.65-25.65s11.484-25.65 25.65-25.65h820.803c14.167 0 25.65 11.483 25.65 25.65s-11.483 25.65-25.65 25.65h-25.648v333.521c31.127 23.422 51.298 60.662 51.298 102.53zM589.952 384.488c-42.429 0-76.95 34.521-76.95 76.95v25.65h153.9v-25.65c0-42.429-34.521-76.95-76.95-76.95zM102.6 461.438v25.65h153.9v-25.65c0-42.429-34.521-76.95-76.95-76.95s-76.95 34.521-76.95 76.95zM461.701 692.29v-153.9h-146.699l38.476 153.9h108.225zM621.226 692.29l38.476-153.9h-146.699v153.9h108.225zM307.801 487.088h153.9v-25.65c0-42.429-34.521-76.95-76.95-76.95s-76.95 34.521-76.95 76.95v25.65zM718.202 487.088h153.9v-25.65c0-42.429-34.521-76.95-76.95-76.95s-76.95 34.521-76.95 76.95v25.65zM856.249 538.388h-143.67l-38.476 153.9h105.196l76.95-153.9zM195.404 692.29h105.196l-38.476-153.9h-143.67l76.95 153.9zM153.9 335.767c8.29-1.69 16.867-2.58 25.65-2.58 41.909 0 79.183 20.208 102.6 51.39 23.417-31.182 60.691-51.39 102.6-51.39s79.183 20.208 102.6 51.39c18.51-24.646 45.679-42.436 76.95-48.81v-310.382h-410.401v310.38zM820.805 25.387h-205.202v310.38c31.273 6.374 58.439 24.163 76.95 48.81 23.417-31.18 60.691-51.388 102.6-51.388 8.784 0 17.36 0.892 25.652 2.582v-310.382zM718.202 204.938c0-14.166-11.484-25.65-25.65-25.65s-25.65 11.484-25.65 25.65c0 14.166 11.484 25.65 25.65 25.65s25.65-11.484 25.65-25.65zM230.85 179.288c-6.564 0-13.128 2.503-18.138 7.513-10.017 10.017-10.017 26.258 0 36.273l51.3 51.3c10.018 10.017 26.258 10.017 36.275 0s10.017-26.258 0-36.273l-51.3-51.3c-5.010-5.010-11.572-7.513-18.138-7.513zM282.151 76.687c-6.564 0-13.128 2.503-18.137 7.513-10.018 10.017-10.018 26.258 0 36.273l153.9 153.9c10.017 10.017 26.258 10.017 36.273 0 10.018-10.017 10.018-26.258 0-36.273l-153.9-153.9c-5.010-5.010-11.572-7.513-18.138-7.513zM436.051 76.687c-6.564 0-13.128 2.503-18.138 7.513-10.017 10.017-10.017 26.258 0 36.273l51.3 51.3c10.018 10.017 26.258 10.017 36.275 0s10.018-26.258 0-36.273l-51.3-51.3c-5.010-5.010-11.572-7.513-18.138-7.513z" />
<glyph unicode="&#xe82e;" glyph-name="cart" data-tags="cart, shop" d="M410.401-77.213c-56.574 0-102.6 46.026-102.6 102.6s46.026 102.6 102.6 102.6 102.6-46.026 102.6-102.6-46.026-102.6-102.6-102.6zM410.401 76.687c-28.288 0-51.3-23.012-51.3-51.3s23.012-51.3 51.3-51.3 51.3 23.012 51.3 51.3-23.012 51.3-51.3 51.3zM769.502-77.213c-56.574 0-102.6 46.026-102.6 102.6s46.026 102.6 102.6 102.6 102.6-46.026 102.6-102.6-46.026-102.6-102.6-102.6zM769.502 76.687c-28.288 0-51.3-23.012-51.3-51.3s23.012-51.3 51.3-51.3 51.3 23.012 51.3 51.3-23.012 51.3-51.3 51.3zM899.778 719.654c-12.885 15.211-32.322 23.934-53.325 23.934h-628.072l-5.095 30.566c-6.734 40.393-44.084 72.034-85.035 72.034h-51.3c-14.166 0-25.65-11.484-25.65-25.65s11.484-25.65 25.65-25.65h51.3c15.752 0 31.843-13.629 34.434-29.168l85.734-514.399c6.732-40.392 44.083-72.033 85.033-72.033h513.001c14.167 0 25.65 11.483 25.65 25.65s-11.483 25.65-25.65 25.65h-513.001c-15.752 0-31.843 13.629-34.434 29.166l-12.654 75.932 511.204 44.452c39.768 3.457 76.055 37.010 82.62 76.384l34.434 206.598c3.454 20.717-1.956 41.323-14.841 56.534zM864.018 671.554l-34.434-206.598c-2.705-16.218-20.083-32.284-36.462-33.711l-515.22-44.802-50.974 305.843h619.523c5.98 0 11.017-2.058 14.183-5.794 3.163-3.738 4.365-9.042 3.382-14.942z" />
<glyph unicode="&#xe82f;" glyph-name="tag" data-tags="tag, price" d="M384.751-30.251c-20.594 0-39.918 7.982-54.412 22.474l-260.904 260.905c-14.494 14.492-22.476 33.816-22.476 54.41s7.982 39.918 22.478 54.412l440.454 440.452c24.958 24.962 70.407 43.788 105.71 43.788h230.85c42.431 0 76.95-34.521 76.95-76.95v-230.85c0-35.3-18.823-80.748-43.785-105.71l-440.455-440.455c-14.494-14.494-33.818-22.474-54.412-22.474zM615.602 794.89c-21.288 0-54.384-13.708-69.435-28.76l-440.455-440.455c-4.805-4.805-7.449-11.246-7.449-18.137s2.646-13.332 7.449-18.135l260.904-260.907c4.805-4.804 11.246-7.448 18.137-7.448s13.333 2.646 18.138 7.449l440.454 440.452c15.051 15.054 28.76 48.152 28.76 69.438v230.85c0 14.143-11.507 25.65-25.65 25.65h-230.85zM743.852 589.688c-42.431 0-76.95 34.521-76.95 76.95s34.519 76.95 76.95 76.95 76.95-34.521 76.95-76.95-34.519-76.95-76.95-76.95zM743.852 692.29c-14.143 0-25.65-11.507-25.65-25.65s11.507-25.65 25.65-25.65 25.65 11.507 25.65 25.65-11.507 25.65-25.65 25.65z" />
<glyph unicode="&#xe830;" glyph-name="phone-handset" data-tags="phone-handset, telephone, phone, call, contact" d="M820.803-77.213c-90.869 0-187.52 25.749-287.267 76.536-91.974 46.828-182.837 113.876-262.771 193.9-79.919 80.009-146.881 170.958-193.65 263.012-50.707 99.804-76.419 196.486-76.419 287.356 0 58.889 54.873 115.776 78.464 137.5 33.916 31.23 87.274 67.7 126.040 67.7 19.283 0 41.885-12.613 71.132-39.694 21.824-20.21 46.36-47.602 70.952-79.221 14.822-19.059 88.766-116.495 88.766-163.235 0-38.344-43.334-64.979-89.211-93.18-17.728-10.897-36.062-22.166-49.322-32.794-14.142-11.337-16.677-17.322-17.095-18.665 48.698-121.365 197.527-270.179 318.825-318.806 1.087 0.341 7.081 2.705 18.628 17.109 10.628 13.26 21.896 31.593 32.794 49.323 28.2 45.879 54.833 89.212 93.18 89.212 46.74 0 144.178-73.942 163.235-88.766 31.619-24.594 59.014-49.128 79.221-70.954 27.081-29.247 39.694-51.849 39.694-71.13 0-38.777-36.45-92.295-67.66-126.345-21.735-23.708-78.645-78.855-137.54-78.855zM204.877 897.487c-13.757-0.262-50.733-17.088-90.967-54.135-38.189-35.167-61.912-73.394-61.912-99.762 0-345.197 423.921-769.502 768.805-769.502 26.332 0 64.544 23.841 99.722 62.221 37.075 40.444 53.912 77.565 54.175 91.356-1.666 9.748-28.626 47.656-102.432 104.487-63.446 48.858-114.923 75.032-128.151 75.385-0.927-0.274-6.67-2.471-18.313-17.256-10.124-12.858-20.952-30.478-31.428-47.516-28.739-46.758-55.884-90.922-95.308-90.922-6.348 0-12.621 1.221-18.644 3.632-134.638 53.856-293.884 213.101-347.74 347.74-6.468 16.17-7.499 41.495 24.32 70.322 16.916 15.323 40.328 29.714 62.97 43.632 17.040 10.473 34.658 21.303 47.514 31.428 14.783 11.641 16.984 17.386 17.256 18.313-0.352 13.229-26.527 64.705-75.385 128.152-56.83 73.803-94.739 100.764-104.486 102.43z" />
<glyph unicode="&#xe831;" glyph-name="phone" data-tags="phone, telephone, call, contact" d="M917.982 492.39c-53.387-0.002-150.195 19.252-180.368 49.422-18.502 18.502-22.898 41.722-26.433 60.38-4.352 22.975-6.964 29.813-17.044 34.143-46.284 19.891-112.676 31.3-182.156 31.3-68.755 0-134.422-11.211-180.162-30.759-9.959-4.256-12.523-11.072-16.773-34.004-3.465-18.708-7.781-41.992-26.286-60.499-16.846-16.845-52.078-28.416-78.666-35.154-34.284-8.69-70.988-13.672-100.698-13.672-34.048 0-57.077 6.473-70.396 19.793-20.061 20.059-32.861 47.492-35.118 75.267-1.905 23.411 2.606 58.093 34.892 90.381 52.417 52.417 122.939 93.292 209.604 121.491 79.705 25.932 170.425 39.64 262.354 39.64 92.558 0 184.030-13.876 264.522-40.126 87.474-28.528 158.66-69.824 211.576-122.739 53.872-53.871 40.531-125.346 0.631-165.25-13.199-13.196-35.926-19.609-69.483-19.611zM511.985 718.937c77.307 0 149.193-12.595 202.409-35.468 36.582-15.72 42.716-48.094 47.191-71.73 2.678-14.132 4.989-26.337 12.304-33.652 12.941-12.94 87.532-34.399 144.093-34.398 24.686 0 32.462 4.227 33.466 4.845 15.882 16.093 35.827 55.729-0.887 92.441-92.572 92.572-256.995 147.84-439.825 147.84-181.327 0-344.198-54.616-435.682-146.104-14.788-14.788-21.53-31.595-20.038-49.951 1.26-15.492 8.738-31.507 20.026-42.911 0.967-0.608 8.864-5.010 34.359-5.010 56.352 0 130.374 21.090 143.091 33.804 7.24 7.241 9.5 19.441 12.118 33.568 4.39 23.705 10.406 56.171 47.055 71.831 52.64 22.5 123.783 34.89 200.322 34.89zM846.453 25.387h-666.902c-34.415 0-66.173 13.535-89.422 38.114-23.252 24.579-35.004 57.040-33.096 91.4 0.218 3.936 6.036 97.497 65.157 191.827 34.972 55.802 81.339 100.284 137.81 132.204 69.794 39.451 154.915 59.455 253.004 59.455s183.211-20.005 253.003-59.455c56.473-31.92 102.837-76.401 137.811-132.204 59.121-94.33 64.937-187.891 65.158-191.827 1.908-34.364-9.847-66.821-33.098-91.4s-55.009-38.114-89.422-38.114zM513.001 487.088c-159.904 0-276.399-55.804-346.25-165.865-52.83-83.239-58.45-168.366-58.501-169.218-1.116-20.090 5.682-39.018 19.145-53.25s31.985-22.070 52.156-22.070h666.902c20.171 0 38.694 7.838 52.156 22.071 13.461 14.231 20.262 33.16 19.142 53.299-0.046 0.8-5.67 85.93-58.498 169.167-69.851 110.059-186.348 165.865-346.25 165.865zM513.001 127.987c-84.862 0-153.9 69.038-153.9 153.9s69.038 153.9 153.9 153.9 153.9-69.038 153.9-153.9-69.038-153.9-153.9-153.9zM513.001 384.488c-56.574 0-102.6-46.026-102.6-102.6s46.026-102.6 102.6-102.6c56.574 0 102.6 46.026 102.6 102.6s-46.026 102.6-102.6 102.6z" />
<glyph unicode="&#xe832;" glyph-name="pushpin" data-tags="pushpin, pin, location" d="M923.403 600.313l-271.527 271.527c-9.668 9.668-22.551 14.995-36.273 14.995s-26.606-5.324-36.273-14.995l-15.027-15.027c-14.864-14.864-25.65-40.906-25.65-61.923v-51.3c0-7.302-5.46-20.486-10.623-25.65l-143.277-143.277c-5.162-5.164-18.348-10.623-25.65-10.623h-51.3c-21.020 0-47.062-10.788-61.923-25.65l-15.027-15.027c-20.003-20.003-20.003-52.545 0-72.548l79.69-79.69-253.922-330.097c-7.856-10.212-6.916-24.667 2.193-33.776 4.976-4.976 11.544-7.513 18.145-7.513 5.487 0 10.996 1.754 15.632 5.319l330.097 253.922 79.692-79.69c9.668-9.669 22.551-14.996 36.273-14.996s26.606 5.324 36.273 14.996l15.027 15.027c14.864 14.864 25.65 40.906 25.65 61.923v51.3c0 7.302 5.46 20.486 10.623 25.65l143.277 143.277c5.164 5.164 18.348 10.623 25.65 10.623h51.3c21.018 0 47.060 10.788 61.923 25.65l15.027 15.027c9.668 9.668 14.996 22.551 14.996 36.273s-5.327 26.606-14.996 36.273zM217.181 165.619l129.942 168.924 38.982-38.982-168.924-129.942zM872.103 549.013c-5.164-5.164-18.348-10.623-25.65-10.623h-51.3c-21.018 0-47.060-10.788-61.923-25.65l-143.277-143.277c-14.864-14.864-25.65-40.906-25.65-61.923v-51.3c0-7.302-5.46-20.486-10.623-25.65l-14.96-14.988c-0.006-0.003-0.032-0.008-0.067-0.008v-0.032l-271.527 271.528 15.028 15.028c5.162 5.164 18.348 10.623 25.65 10.623h51.3c21.020 0 47.062 10.788 61.923 25.65l143.275 143.275c14.864 14.864 25.65 40.906 25.65 61.923v51.3c0 7.302 5.46 20.486 10.623 25.65l15.027 15.027 271.527-271.527-15.027-15.027z" />
<glyph unicode="&#xe833;" glyph-name="map-marker" data-tags="map-marker, pin, location" d="M513.001-77.213c-7.872 0-15.307 3.614-20.17 9.804-2.937 3.738-72.729 93.046-143.509 224.949-41.663 77.643-74.888 153.868-98.757 226.56-30.101 91.678-45.365 178.106-45.365 256.889 0 169.722 138.080 307.801 307.801 307.801s307.801-138.080 307.801-307.801c0-78.783-15.264-165.21-45.366-256.888-23.868-72.692-57.096-148.919-98.757-226.56-70.778-131.904-140.572-221.213-143.509-224.949-4.861-6.191-12.296-9.806-20.168-9.806zM513.001 897.49c-141.434 0-256.5-115.066-256.5-256.5 0-166.923 75.060-341.844 138.028-459.192 46.276-86.242 92.816-154.608 118.469-190.31 25.759 35.859 72.571 104.636 118.92 191.133 62.765 117.13 137.585 291.733 137.585 458.369 0 141.434-115.064 256.5-256.5 256.5zM513.001 487.088c-84.862 0-153.9 69.038-153.9 153.9s69.038 153.9 153.9 153.9 153.9-69.038 153.9-153.9-69.038-153.9-153.9-153.9zM513.001 743.59c-56.574 0-102.6-46.026-102.6-102.6s46.026-102.6 102.6-102.6c56.574 0 102.6 46.026 102.6 102.6s-46.026 102.6-102.6 102.6z" />
<glyph unicode="&#xe834;" glyph-name="map" data-tags="map, guide, address" d="M962.538 893.658c-7.563 4.674-17.005 5.098-24.955 1.124l-296.33-148.165-296.33 148.165c-7.22 3.611-15.721 3.611-22.942 0l-307.801-153.9c-8.688-4.344-14.178-13.226-14.178-22.942v-769.502c0-8.89 4.602-17.146 12.165-21.818 4.118-2.545 8.797-3.832 13.487-3.832 3.92 0 7.85 0.9 11.468 2.708l296.33 148.165 296.33-148.165c7.22-3.611 15.723-3.611 22.943 0l307.801 153.9c8.69 4.344 14.18 13.226 14.18 22.942v769.502c-0.003 8.89-4.605 17.146-12.168 21.818zM307.801 118.19l-256.5-128.25v712.145l256.5 128.25v-712.145zM359.101 830.336l256.5-128.25v-712.147l-256.5 128.25v712.147zM923.403 118.19l-256.5-128.25v712.145l256.5 128.25v-712.145z" />
<glyph unicode="&#xe835;" glyph-name="location" data-tags="location, compass, direction" d="M436.053-77.215c-2.209 0-4.443 0.285-6.654 0.88-11.208 3.009-18.998 13.168-18.998 24.771v384.751h-384.751c-11.603 0-21.762 7.79-24.771 18.998-3.011 11.206 1.878 23.038 11.922 28.851l974.703 564.302c10.057 5.823 22.77 4.155 30.988-4.061 8.218-8.218 9.884-20.931 4.061-30.99l-564.302-974.703c-4.668-8.061-13.212-12.798-22.198-12.798zM121.148 384.488h314.903c14.166 0 25.65-11.483 25.65-25.65v-314.903l468.26 808.813-808.813-468.26z" />
<glyph unicode="&#xe836;" glyph-name="calendar-full" data-tags="calendar-full, calendar, date, schedule" d="M949.053 846.19h-128.25v25.65c0 14.166-11.483 25.65-25.65 25.65s-25.65-11.484-25.65-25.65v-25.65h-513.001v25.65c0 14.166-11.484 25.65-25.65 25.65s-25.65-11.484-25.65-25.65v-25.65h-128.25c-42.429 0-76.95-34.521-76.95-76.95v-718.202c0-42.431 34.521-76.95 76.95-76.95h872.103c42.431 0 76.95 34.519 76.95 76.95v718.202c0 42.429-34.519 76.95-76.95 76.95zM76.95 794.89h128.25v-76.95c0-14.166 11.484-25.65 25.65-25.65s25.65 11.484 25.65 25.65v76.95h513.001v-76.95c0-14.166 11.483-25.65 25.65-25.65s25.65 11.484 25.65 25.65v76.95h128.25c14.143 0 25.65-11.507 25.65-25.65v-128.25h-923.403v128.25c0 14.143 11.507 25.65 25.65 25.65zM949.053 25.387h-872.103c-14.143 0-25.65 11.507-25.65 25.65v538.652h923.403v-538.652c0-14.143-11.507-25.65-25.65-25.65zM384.751 435.788h-51.3c-14.166 0-25.65 11.483-25.65 25.65s11.484 25.65 25.65 25.65h51.3c14.166 0 25.65-11.483 25.65-25.65s-11.484-25.65-25.65-25.65zM538.652 435.788h-51.3c-14.166 0-25.65 11.483-25.65 25.65s11.484 25.65 25.65 25.65h51.3c14.167 0 25.65-11.483 25.65-25.65s-11.483-25.65-25.65-25.65zM692.552 435.788h-51.3c-14.167 0-25.65 11.483-25.65 25.65s11.483 25.65 25.65 25.65h51.3c14.167 0 25.65-11.483 25.65-25.65s-11.483-25.65-25.65-25.65zM846.453 435.788h-51.3c-14.167 0-25.65 11.483-25.65 25.65s11.483 25.65 25.65 25.65h51.3c14.167 0 25.65-11.483 25.65-25.65s-11.483-25.65-25.65-25.65zM230.85 333.188h-51.3c-14.166 0-25.65 11.483-25.65 25.65s11.484 25.65 25.65 25.65h51.3c14.166 0 25.65-11.483 25.65-25.65s-11.484-25.65-25.65-25.65zM384.751 333.188h-51.3c-14.166 0-25.65 11.483-25.65 25.65s11.484 25.65 25.65 25.65h51.3c14.166 0 25.65-11.483 25.65-25.65s-11.484-25.65-25.65-25.65zM538.652 333.188h-51.3c-14.166 0-25.65 11.483-25.65 25.65s11.484 25.65 25.65 25.65h51.3c14.167 0 25.65-11.483 25.65-25.65s-11.483-25.65-25.65-25.65zM692.552 333.188h-51.3c-14.167 0-25.65 11.483-25.65 25.65s11.483 25.65 25.65 25.65h51.3c14.167 0 25.65-11.483 25.65-25.65s-11.483-25.65-25.65-25.65zM846.453 333.188h-51.3c-14.167 0-25.65 11.483-25.65 25.65s11.483 25.65 25.65 25.65h51.3c14.167 0 25.65-11.483 25.65-25.65s-11.483-25.65-25.65-25.65zM230.85 230.588h-51.3c-14.166 0-25.65 11.483-25.65 25.65s11.484 25.65 25.65 25.65h51.3c14.166 0 25.65-11.483 25.65-25.65s-11.484-25.65-25.65-25.65zM384.751 230.588h-51.3c-14.166 0-25.65 11.483-25.65 25.65s11.484 25.65 25.65 25.65h51.3c14.166 0 25.65-11.483 25.65-25.65s-11.484-25.65-25.65-25.65zM538.652 230.588h-51.3c-14.166 0-25.65 11.483-25.65 25.65s11.484 25.65 25.65 25.65h51.3c14.167 0 25.65-11.483 25.65-25.65s-11.483-25.65-25.65-25.65zM692.552 230.588h-51.3c-14.167 0-25.65 11.483-25.65 25.65s11.483 25.65 25.65 25.65h51.3c14.167 0 25.65-11.483 25.65-25.65s-11.483-25.65-25.65-25.65zM846.453 230.588h-51.3c-14.167 0-25.65 11.483-25.65 25.65s11.483 25.65 25.65 25.65h51.3c14.167 0 25.65-11.483 25.65-25.65s-11.483-25.65-25.65-25.65zM230.85 127.987h-51.3c-14.166 0-25.65 11.483-25.65 25.65s11.484 25.65 25.65 25.65h51.3c14.166 0 25.65-11.483 25.65-25.65s-11.484-25.65-25.65-25.65zM384.751 127.987h-51.3c-14.166 0-25.65 11.483-25.65 25.65s11.484 25.65 25.65 25.65h51.3c14.166 0 25.65-11.483 25.65-25.65s-11.484-25.65-25.65-25.65zM538.652 127.987h-51.3c-14.166 0-25.65 11.483-25.65 25.65s11.484 25.65 25.65 25.65h51.3c14.167 0 25.65-11.483 25.65-25.65s-11.483-25.65-25.65-25.65zM692.552 127.987h-51.3c-14.167 0-25.65 11.483-25.65 25.65s11.483 25.65 25.65 25.65h51.3c14.167 0 25.65-11.483 25.65-25.65s-11.483-25.65-25.65-25.65zM846.453 127.987h-51.3c-14.167 0-25.65 11.483-25.65 25.65s11.483 25.65 25.65 25.65h51.3c14.167 0 25.65-11.483 25.65-25.65s-11.483-25.65-25.65-25.65z" />
<glyph unicode="&#xe837;" glyph-name="keyboard" data-tags="keyboard, type, typing" d="M897.753 127.987h-820.803c-42.429 0-76.95 34.519-76.95 76.95v410.401c0 42.429 34.521 76.95 76.95 76.95h820.803c42.431 0 76.95-34.521 76.95-76.95v-410.401c0-42.431-34.519-76.95-76.95-76.95zM76.95 640.988c-14.143 0-25.65-11.507-25.65-25.65v-410.401c0-14.143 11.507-25.65 25.65-25.65h820.803c14.143 0 25.65 11.507 25.65 25.65v410.401c0 14.143-11.507 25.65-25.65 25.65h-820.803zM179.55 538.388h-51.3c-14.166 0-25.65 11.483-25.65 25.65s11.484 25.65 25.65 25.65h51.3c14.166 0 25.65-11.483 25.65-25.65s-11.484-25.65-25.65-25.65zM846.453 538.388h-51.3c-14.167 0-25.65 11.483-25.65 25.65s11.483 25.65 25.65 25.65h51.3c14.167 0 25.65-11.483 25.65-25.65s-11.483-25.65-25.65-25.65zM230.85 435.788h-102.6c-14.166 0-25.65 11.483-25.65 25.65s11.484 25.65 25.65 25.65h102.6c14.166 0 25.65-11.483 25.65-25.65s-11.484-25.65-25.65-25.65zM179.55 230.588h-51.3c-14.166 0-25.65 11.483-25.65 25.65s11.484 25.65 25.65 25.65h51.3c14.166 0 25.65-11.483 25.65-25.65s-11.484-25.65-25.65-25.65zM589.952 230.588h-307.801c-14.166 0-25.65 11.483-25.65 25.65s11.484 25.65 25.65 25.65h307.801c14.167 0 25.65-11.483 25.65-25.65s-11.483-25.65-25.65-25.65zM743.852 230.588h-51.3c-14.167 0-25.65 11.483-25.65 25.65s11.483 25.65 25.65 25.65h51.3c14.167 0 25.65-11.483 25.65-25.65s-11.483-25.65-25.65-25.65zM846.453 333.188h-153.9c-14.167 0-25.65 11.483-25.65 25.65s11.483 25.65 25.65 25.65h128.25v76.95c0 14.167 11.483 25.65 25.65 25.65s25.65-11.483 25.65-25.65v-102.6c0-14.167-11.483-25.65-25.65-25.65zM282.151 333.188h-153.9c-14.166 0-25.65 11.483-25.65 25.65s11.484 25.65 25.65 25.65h153.9c14.166 0 25.65-11.483 25.65-25.65s-11.484-25.65-25.65-25.65zM307.801 564.038c0-14.166-11.484-25.65-25.65-25.65s-25.65 11.484-25.65 25.65c0 14.166 11.484 25.65 25.65 25.65s25.65-11.484 25.65-25.65zM410.401 564.038c0-14.166-11.484-25.65-25.65-25.65s-25.65 11.484-25.65 25.65c0 14.166 11.484 25.65 25.65 25.65s25.65-11.484 25.65-25.65zM513.001 564.038c0-14.166-11.484-25.65-25.65-25.65s-25.65 11.484-25.65 25.65c0 14.166 11.484 25.65 25.65 25.65s25.65-11.484 25.65-25.65zM615.602 564.038c0-14.166-11.484-25.65-25.65-25.65s-25.65 11.484-25.65 25.65c0 14.166 11.484 25.65 25.65 25.65s25.65-11.484 25.65-25.65zM718.202 564.038c0-14.166-11.484-25.65-25.65-25.65s-25.65 11.484-25.65 25.65c0 14.166 11.484 25.65 25.65 25.65s25.65-11.484 25.65-25.65zM359.101 461.438c0-14.166-11.484-25.65-25.65-25.65s-25.65 11.484-25.65 25.65c0 14.166 11.484 25.65 25.65 25.65s25.65-11.484 25.65-25.65zM461.701 461.438c0-14.166-11.484-25.65-25.65-25.65s-25.65 11.484-25.65 25.65c0 14.166 11.484 25.65 25.65 25.65s25.65-11.484 25.65-25.65zM564.302 461.438c0-14.166-11.484-25.65-25.65-25.65s-25.65 11.484-25.65 25.65c0 14.166 11.484 25.65 25.65 25.65s25.65-11.484 25.65-25.65zM666.902 461.438c0-14.166-11.484-25.65-25.65-25.65s-25.65 11.484-25.65 25.65c0 14.166 11.484 25.65 25.65 25.65s25.65-11.484 25.65-25.65zM769.502 461.438c0-14.166-11.484-25.65-25.65-25.65s-25.65 11.484-25.65 25.65c0 14.166 11.484 25.65 25.65 25.65s25.65-11.484 25.65-25.65zM410.401 358.838c0-14.166-11.484-25.65-25.65-25.65s-25.65 11.484-25.65 25.65c0 14.166 11.484 25.65 25.65 25.65s25.65-11.484 25.65-25.65zM513.001 358.838c0-14.166-11.484-25.65-25.65-25.65s-25.65 11.484-25.65 25.65c0 14.166 11.484 25.65 25.65 25.65s25.65-11.484 25.65-25.65zM615.602 358.838c0-14.166-11.484-25.65-25.65-25.65s-25.65 11.484-25.65 25.65c0 14.166 11.484 25.65 25.65 25.65s25.65-11.484 25.65-25.65z" />
<glyph unicode="&#xe838;" glyph-name="spell-check" data-tags="spell-check, spelling" d="M230.85 230.588c-14.166 0-25.65-11.483-25.65-25.65v-0.070c-21.45 16.139-48.1 25.72-76.95 25.72-70.717 0-128.25-57.533-128.25-128.25s57.533-128.25 128.25-128.25c28.85 0 55.5 9.581 76.95 25.72v-0.070c0-14.167 11.484-25.65 25.65-25.65s25.65 11.483 25.65 25.65v205.2c0 14.167-11.484 25.65-25.65 25.65zM128.25 25.387c-42.429 0-76.95 34.521-76.95 76.95s34.521 76.95 76.95 76.95 76.95-34.521 76.95-76.95-34.521-76.95-76.95-76.95zM436.051 230.588c-28.85 0-55.5-9.581-76.95-25.72v205.27c0 14.167-11.484 25.65-25.65 25.65s-25.65-11.483-25.65-25.65v-410.401c0-14.167 11.484-25.65 25.65-25.65s25.65 11.483 25.65 25.65v0.070c21.45-16.139 48.1-25.72 76.95-25.72 70.717 0 128.25 57.533 128.25 128.25s-57.533 128.25-128.25 128.25zM436.051 25.387c-42.429 0-76.95 34.521-76.95 76.95s34.521 76.95 76.95 76.95 76.95-34.521 76.95-76.95-34.521-76.95-76.95-76.95zM743.852-25.913c-70.717 0-128.25 57.533-128.25 128.25s57.533 128.25 128.25 128.25c22.54 0 44.72-5.937 64.14-17.17 12.262-7.094 16.454-22.783 9.362-35.046-7.096-12.264-22.788-16.453-35.046-9.362-11.625 6.724-24.923 10.278-38.457 10.278-42.429 0-76.95-34.521-76.95-76.95s34.521-76.95 76.95-76.95c13.535 0 26.834 3.553 38.458 10.278 12.259 7.092 27.952 2.905 35.046-9.359 7.094-12.261 2.905-27.953-9.359-35.046-19.42-11.235-41.602-17.173-64.145-17.173zM589.952 410.138c-6.564 0-13.128 2.503-18.137 7.513l-153.9 153.9c-10.017 10.018-10.017 26.258 0 36.275 10.018 10.017 26.258 10.017 36.275 0l135.761-135.764 340.965 340.964c10.017 10.017 26.258 10.017 36.273 0 10.018-10.018 10.018-26.258 0-36.275l-359.101-359.101c-5.010-5.008-11.572-7.512-18.138-7.512z" />
<glyph unicode="&#xe839;" glyph-name="screen" data-tags="screen, monitor" d="M897.753 846.19h-820.803c-42.429 0-76.95-34.521-76.95-76.95v-513.001c0-42.431 34.521-76.95 76.95-76.95h384.751v-102.6h-179.55c-14.166 0-25.65-11.483-25.65-25.65s11.484-25.65 25.65-25.65h410.401c14.167 0 25.65 11.483 25.65 25.65s-11.483 25.65-25.65 25.65h-179.55v102.6h384.751c42.431 0 76.95 34.519 76.95 76.95v513.001c0 42.429-34.519 76.95-76.95 76.95zM923.403 256.238c0-14.143-11.507-25.65-25.65-25.65h-820.803c-14.143 0-25.65 11.507-25.65 25.65v513.001c0 14.143 11.507 25.65 25.65 25.65h820.803c14.143 0 25.65-11.507 25.65-25.65v-513.001z" />
<glyph unicode="&#xe83a;" glyph-name="smartphone" data-tags="smartphone, mobile, phone, cellular" d="M538.652 25.387h-51.3c-14.166 0-25.65 11.483-25.65 25.65s11.484 25.65 25.65 25.65h51.3c14.167 0 25.65-11.483 25.65-25.65s-11.483-25.65-25.65-25.65zM743.852-77.213h-461.701c-42.429 0-76.95 34.519-76.95 76.95v872.103c0 42.429 34.521 76.95 76.95 76.95h461.701c42.431 0 76.95-34.521 76.95-76.95v-872.103c0-42.431-34.519-76.95-76.95-76.95zM282.151 897.49c-14.143 0-25.65-11.507-25.65-25.65v-872.103c0-14.143 11.507-25.65 25.65-25.65h461.701c14.143 0 25.65 11.507 25.65 25.65v872.103c0 14.143-11.507 25.65-25.65 25.65h-461.701zM692.552 127.987h-359.101c-14.166 0-25.65 11.483-25.65 25.65v666.902c0 14.166 11.484 25.65 25.65 25.65h359.101c14.167 0 25.65-11.484 25.65-25.65v-666.902c0-14.167-11.483-25.65-25.65-25.65zM359.101 179.288h307.801v615.602h-307.801v-615.602z" />
<glyph unicode="&#xe83b;" glyph-name="tablet" data-tags="tablet, mobile" d="M846.453-77.213h-666.902c-42.429 0-76.95 34.519-76.95 76.95v872.103c0 42.429 34.521 76.95 76.95 76.95h666.902c42.431 0 76.95-34.521 76.95-76.95v-872.103c0-42.431-34.519-76.95-76.95-76.95zM179.55 897.49c-14.143 0-25.65-11.507-25.65-25.65v-872.103c0-14.143 11.507-25.65 25.65-25.65h666.902c14.143 0 25.65 11.507 25.65 25.65v872.103c0 14.143-11.507 25.65-25.65 25.65h-666.902zM538.652 25.387h-51.3c-14.166 0-25.65 11.483-25.65 25.65s11.484 25.65 25.65 25.65h51.3c14.167 0 25.65-11.483 25.65-25.65s-11.483-25.65-25.65-25.65zM795.153 127.987h-564.302c-14.166 0-25.65 11.483-25.65 25.65v666.902c0 14.166 11.484 25.65 25.65 25.65h564.302c14.167 0 25.65-11.484 25.65-25.65v-666.902c0-14.167-11.483-25.65-25.65-25.65zM256.5 179.288h513.001v615.602h-513.001v-615.602z" />
<glyph unicode="&#xe83c;" glyph-name="laptop" data-tags="laptop, computer, pc" d="M179.55 230.588h666.902c42.431 0 76.95 34.519 76.95 76.95v410.401c0 42.429-34.519 76.95-76.95 76.95h-666.902c-42.429 0-76.95-34.521-76.95-76.95v-410.401c0-42.431 34.521-76.95 76.95-76.95zM153.9 717.94c0 14.143 11.507 25.65 25.65 25.65h666.902c14.143 0 25.65-11.507 25.65-25.65v-410.401c0-14.143-11.507-25.65-25.65-25.65h-666.902c-14.143 0-25.65 11.507-25.65 25.65v410.401zM1000.353 179.288h-974.703c-14.166 0-25.65-11.483-25.65-25.65v-51.3c0-42.431 34.521-76.95 76.95-76.95h872.103c42.431 0 76.95 34.519 76.95 76.95v51.3c0 14.167-11.483 25.65-25.65 25.65zM949.053 76.687h-872.103c-14.143 0-25.65 11.507-25.65 25.65v25.65h923.403v-25.65c0-14.143-11.507-25.65-25.65-25.65z" />
<glyph unicode="&#xe83d;" glyph-name="laptop-phone" data-tags="laptop-phone, devices, responsive" d="M589.952 230.588h-410.401c-42.429 0-76.95 34.519-76.95 76.95v410.401c0 42.429 34.521 76.95 76.95 76.95h666.902c42.431 0 76.95-34.521 76.95-76.95v-51.3c0-14.166-11.483-25.65-25.65-25.65s-25.65 11.484-25.65 25.65v51.3c0 14.143-11.507 25.65-25.65 25.65h-666.902c-14.143 0-25.65-11.507-25.65-25.65v-410.401c0-14.143 11.507-25.65 25.65-25.65h410.401c14.167 0 25.65-11.483 25.65-25.65s-11.483-25.65-25.65-25.65zM589.952 25.387h-513.001c-42.429 0-76.95 34.521-76.95 76.95v51.3c0 14.167 11.484 25.65 25.65 25.65h564.302c14.167 0 25.65-11.483 25.65-25.65s-11.483-25.65-25.65-25.65h-538.652v-25.65c0-14.143 11.507-25.65 25.65-25.65h513.001c14.167 0 25.65-11.483 25.65-25.65s-11.483-25.65-25.65-25.65zM949.053 25.387h-205.2c-42.429 0-76.95 34.521-76.95 76.95v410.401c0 42.429 34.521 76.95 76.95 76.95h205.2c42.429 0 76.95-34.521 76.95-76.95v-410.401c0-42.429-34.521-76.95-76.95-76.95zM743.852 538.388c-14.143 0-25.65-11.507-25.65-25.65v-410.401c0-14.143 11.507-25.65 25.65-25.65h205.2c14.143 0 25.65 11.507 25.65 25.65v410.401c0 14.143-11.507 25.65-25.65 25.65h-205.2zM846.453 127.987c-6.75 0-13.354 2.742-18.134 7.518-4.776 4.778-7.516 11.382-7.516 18.132s2.742 13.37 7.516 18.134c4.764 4.776 11.384 7.516 18.134 7.516s13.37-2.742 18.132-7.516c4.778-4.764 7.518-11.368 7.518-18.134 0-6.75-2.742-13.37-7.518-18.132-4.778-4.778-11.382-7.518-18.132-7.518z" />
<glyph unicode="&#xe83e;" glyph-name="power-switch" data-tags="power-switch, toggle" d="M487.351 333.188c-14.166 0-25.65 11.483-25.65 25.65v461.701c0 14.166 11.484 25.65 25.65 25.65s25.65-11.484 25.65-25.65v-461.701c0-14.167-11.484-25.65-25.65-25.65zM487.351-25.913c-102.77 0-199.39 40.022-272.061 112.69-72.67 72.67-112.69 169.29-112.69 272.061 0 84.56 26.911 164.8 77.826 232.047 49.246 65.042 119.211 113.616 197.008 136.768 13.576 4.042 27.859-3.691 31.9-17.268s-3.691-27.859-17.268-31.9c-140.229-41.736-238.167-173.178-238.167-319.646 0-183.865 149.586-333.451 333.451-333.451s333.451 149.586 333.451 333.451c0 146.473-97.942 277.916-238.175 319.648-13.578 4.042-21.309 18.324-17.268 31.9 4.040 13.578 18.326 21.309 31.899 17.269 77.798-23.152 147.768-71.722 197.016-136.766 50.916-67.247 77.827-147.49 77.827-232.051 0-102.77-40.020-199.392-112.69-272.061s-169.29-112.69-272.061-112.69z" />
<glyph unicode="&#xe83f;" glyph-name="bubble" data-tags="bubble, chat, comment" d="M25.65-25.913c-11.529 0-21.642 7.693-24.718 18.802s1.638 22.908 11.523 28.84c86.74 52.044 122.725 127.664 135.482 163.073-94.272 72.188-147.936 172.082-147.936 276.634 0 52.808 13.256 103.958 39.399 152.032 24.95 45.884 60.524 86.976 105.732 122.137 91.683 71.31 213.218 110.581 342.218 110.581s250.535-39.271 342.22-110.582c45.206-35.161 80.782-76.252 105.732-122.137 26.143-48.073 39.398-99.224 39.398-152.030s-13.256-103.958-39.398-152.032c-24.95-45.884-60.526-86.976-105.732-122.137-91.685-71.31-213.219-110.581-342.22-110.581-53.011 0-105.005 6.639-154.739 19.745-22.017-14.665-63.164-40.685-112.306-65.133-76.312-37.964-141.804-57.214-194.657-57.214zM487.351 794.89c-240.44 0-436.051-149.586-436.051-333.451 0-93.128 51.532-182.735 141.383-245.848 8.815-6.19 12.821-17.228 10.033-27.63-5.996-22.369-26.415-83.761-81.036-143.014 66.789 23.387 138.694 63.956 191.808 100.482 6.308 4.336 14.225 5.631 21.586 3.526 48.653-13.916 99.886-20.968 152.279-20.968 240.44 0 436.051 149.586 436.051 333.451s-195.612 333.451-436.051 333.451z" />
<glyph unicode="&#xe840;" glyph-name="heart-pulse" data-tags="heart-pulse, health, heart-rate" d="M487.351-25.913c-4.291 0-8.582 1.076-12.456 3.228-5.966 3.313-147.573 82.626-275.452 209.395-10.060 9.974-10.13 26.215-0.157 36.273s26.215 10.13 36.273 0.157c101.547-100.668 214.726-171.658 251.785-193.728 37.072 22.098 150.417 93.227 251.796 193.73 10.062 9.972 26.3 9.902 36.275-0.158s9.903-26.302-0.158-36.275c-127.879-126.768-269.484-206.080-275.45-209.394-3.874-2.153-8.165-3.228-12.456-3.228zM65.606 384.472c-9.628 0-18.857 5.447-23.228 14.737-28.12 59.775-42.378 119.548-42.378 177.653 0 148.508 120.818 269.326 269.326 269.326 50.271 0 103.663-18.841 150.345-53.056 27.305-20.013 50.54-44.129 67.681-69.742 17.141 25.615 40.377 49.732 67.682 69.742 46.681 34.213 100.074 53.056 150.344 53.056 148.508 0 269.326-120.818 269.326-269.326 0-58.106-14.258-117.875-42.376-177.647-6.030-12.82-21.309-18.326-34.127-12.291-12.82 6.030-18.322 21.309-12.293 34.127 24.882 52.89 37.498 105.313 37.498 155.811 0 120.22-97.807 218.026-218.026 218.026-87.357 0-172.192-71.865-193.692-136.362-3.491-10.473-13.293-17.538-24.334-17.538s-20.842 7.065-24.334 17.538c-21.498 64.497-106.333 136.362-193.692 136.362-120.22 0-218.026-97.805-218.026-218.026 0-50.498 12.616-102.924 37.5-155.816 6.031-12.82 0.528-28.097-12.291-34.127-3.528-1.663-7.244-2.447-10.902-2.447zM539.399 179.264c-0.232 0-0.456 0.002-0.68 0.006-10.37 0.218-29.178 5.608-38.628 39.27l-62.413 222.349-41.408-168.222c-8.122-32.997-26.954-39.891-37.461-41.062-10.503-1.175-30.394 1.399-45.593 31.795l-31.065 62.132c-1.477 2.958-2.856 4.844-3.901 6.012-0.171-0.229-0.355-0.483-0.548-0.767-18.977-27.87-61.173-48.888-98.154-48.888h-51.3c-14.166 0-25.65 11.483-25.65 25.65s11.484 25.65 25.65 25.65h51.3c21.596 0 47.244 13.97 55.746 26.46 11.419 16.771 28.080 25.688 45.719 24.528 19.18-1.288 36.316-14.302 47.020-35.704l22.825-45.652 48.024 195.091c8.085 32.848 24.706 39.985 37.222 40.187 12.536 0.24 29.36-6.391 38.506-38.964l65.891-234.744 60.441 185.1c10.524 32.23 29.837 37.781 40.412 38.218 10.562 0.435 30.284-3.488 43.441-34.74l37.134-88.198c6.96-16.528 29.631-31.584 47.566-31.584h76.95c14.167 0 25.65-11.483 25.65-25.65s-11.483-25.65-25.65-25.65h-76.95c-38.314 0-79.978 27.662-94.848 62.975l-30.361 72.108-65.336-200.089c-10.618-32.518-29.056-37.62-39.561-37.62z" />
<glyph unicode="&#xe841;" glyph-name="construction" data-tags="construction, road-sign" d="M1026.003 692.298v76.942c0 14.166-11.483 25.65-25.65 25.65h-179.542c-0.005 0-0.011 0-0.016 0h-256.484c-0.005 0-0.011 0-0.016 0h-256.484c-0.005 0-0.011 0-0.016 0h-282.143c-14.166 0-25.65-11.484-25.65-25.65v-307.801c0-14.167 11.484-25.65 25.65-25.65h76.95v-307.801h-25.65c-14.166 0-25.65-11.483-25.65-25.65s11.484-25.65 25.65-25.65h205.2c14.166 0 25.65 11.483 25.65 25.65s-11.484 25.65-25.65 25.65h-25.65v153.9h513.001v-153.9h-25.65c-14.167 0-25.65-11.483-25.65-25.65s11.483-25.65 25.65-25.65h205.2c14.167 0 25.65 11.483 25.65 25.65s-11.483 25.65-25.65 25.65h-25.65v307.801h76.95c14.167 0 25.65 11.483 25.65 25.65v230.842c0 0.005 0 0.011 0 0.016zM974.703 702.913l-215.825-215.825h-183.953l256.5 256.5h143.277v-40.677zM318.425 487.088l256.5 256.5h183.953l-256.5-256.5h-183.953zM61.923 487.088l256.5 256.5h183.953l-256.5-256.5h-183.953zM245.877 743.59l-194.577-194.577v194.577h194.577zM153.9 127.987v307.801h51.3v-307.801h-51.3zM256.5 333.188v102.6h513.001v-102.6h-513.001zM872.103 127.987h-51.3v307.801h51.3v-307.801zM831.426 487.088l143.277 143.277v-143.277h-143.277z" />
<glyph unicode="&#xe842;" glyph-name="pie-chart" data-tags="pie-chart, chart, statistics" d="M436.051-77.213c-116.474 0-225.975 45.357-308.335 127.717s-127.717 191.862-127.717 308.335c0 116.474 45.357 225.975 127.717 308.335s191.86 127.717 308.335 127.717c14.166 0 25.65-11.484 25.65-25.65v-384.751h384.751c14.167 0 25.65-11.483 25.65-25.65 0-116.473-45.357-225.975-127.717-308.335s-191.862-127.717-308.335-127.717zM410.401 742.745c-200.233-13.252-359.101-180.378-359.101-383.907 0-212.153 172.599-384.751 384.751-384.751 203.529 0 370.655 158.868 383.907 359.101h-383.907c-14.166 0-25.65 11.483-25.65 25.65v383.907zM949.053 435.788h-410.401c-14.167 0-25.65 11.484-25.65 25.65v410.401c0 14.166 11.483 25.65 25.65 25.65 116.473 0 225.975-45.357 308.335-127.717s127.717-191.86 127.717-308.335c0-14.166-11.483-25.65-25.65-25.65zM564.302 487.088h358.257c-12.688 191.748-166.509 345.565-358.257 358.257v-358.257z" />
<glyph unicode="&#xe843;" glyph-name="chart-bars" data-tags="chart-bars, chart, statistics" d="M897.753-77.213h-820.803c-42.429 0-76.95 34.519-76.95 76.95v820.803c0 42.429 34.521 76.95 76.95 76.95h820.803c42.431 0 76.95-34.521 76.95-76.95v-820.803c0-42.431-34.519-76.95-76.95-76.95zM76.95 846.19c-14.143 0-25.65-11.507-25.65-25.65v-820.803c0-14.143 11.507-25.65 25.65-25.65h820.803c14.143 0 25.65 11.507 25.65 25.65v820.803c0 14.143-11.507 25.65-25.65 25.65h-820.803zM333.451 76.687h-102.6c-14.166 0-25.65 11.483-25.65 25.65v461.701c0 14.166 11.484 25.65 25.65 25.65h102.6c14.166 0 25.65-11.484 25.65-25.65v-461.701c0-14.167-11.484-25.65-25.65-25.65zM256.5 127.987h51.3v410.401h-51.3v-410.401zM538.652 76.687h-102.6c-14.166 0-25.65 11.483-25.65 25.65v615.602c0 14.166 11.484 25.65 25.65 25.65h102.6c14.167 0 25.65-11.484 25.65-25.65v-615.602c0-14.167-11.483-25.65-25.65-25.65zM461.701 127.987h51.3v564.302h-51.3v-564.302zM743.852 76.687h-102.6c-14.167 0-25.65 11.483-25.65 25.65v256.5c0 14.167 11.483 25.65 25.65 25.65h102.6c14.167 0 25.65-11.483 25.65-25.65v-256.5c0-14.167-11.483-25.65-25.65-25.65zM666.902 127.987h51.3v205.2h-51.3v-205.2z" />
<glyph unicode="&#xe844;" glyph-name="gift" data-tags="gift, birthday, prize, box" d="M949.053 692.29h-153.97c16.139 21.45 25.72 48.1 25.72 76.95 0 70.717-57.533 128.25-128.25 128.25-71.321 0-131.125-56.491-160.426-90.163-17.741-20.39-33.018-42.218-44.774-63.332-11.755 21.112-27.033 42.942-44.776 63.332-29.303 33.672-89.105 90.163-160.428 90.163-70.717 0-128.25-57.533-128.25-128.25 0-28.85 9.581-55.5 25.719-76.95h-153.969c-14.166 0-25.65-11.484-25.65-25.65v-153.9c0-14.166 11.484-25.65 25.65-25.65h25.65v-487.351c0-42.431 34.521-76.95 76.95-76.95h718.202c42.431 0 76.95 34.519 76.95 76.95v487.351h25.65c14.167 0 25.65 11.484 25.65 25.65v153.9c0 14.166-11.483 25.65-25.65 25.65zM570.826 773.651c40.113 46.1 84.482 72.539 121.726 72.539 42.431 0 76.95-34.521 76.95-76.95s-34.519-76.95-76.95-76.95h-173.284c8.872 22.665 26.81 52.922 51.558 81.361zM564.302-25.913h-153.9v666.902h153.9v-666.902zM205.2 769.24c0 42.429 34.521 76.95 76.95 76.95 37.245 0 81.613-26.439 121.726-72.539 24.747-28.442 42.687-58.696 51.558-81.361h-173.284c-42.429 0-76.95 34.521-76.95 76.95zM51.3 640.988h307.801v-102.6h-307.801v102.6zM102.6-0.263v487.351h256.5v-513.001h-230.85c-14.143 0-25.65 11.507-25.65 25.65zM872.103-0.263c0-14.143-11.507-25.65-25.65-25.65h-230.85v513.001h256.5v-487.351zM923.403 538.388h-307.801v102.6h307.801v-102.6z" />
</font>
</defs>
</svg>
